В пустыне смерти / Into the Badlands / Сезон: 2 / Серии: 1-10 из 10 (Дэвид Добкин / David Dobkin) [2017, США, Боевик, драма, приключения, экранизация, WEBRip 1080p] MVO (LostFilm, OmskBird) + Original + Subs (Rus, Eng)

Ответить на тему
Статистика раздачи
Размер:  36,1 GB   |    Зарегистрирован:  1 год 4 месяца   |    Скачан:  0 раз

Полного источника не было: Никогда

 
     
 
 
 
Автор Сообщение

Grandfather61 ®

Пол: Мужской

Стаж: 1 год 5 месяцев

Сообщений: 641

Создавать темы 26-Июл-2017 10:16

[Цитировать]

--В пустыне смерти / Into the Badlands-- Год выпуска: 2017
Страна: США
Жанр: Боевик, драма, приключения, экранизация
Продолжительность: ~ 00:45:00-Перевод:
Профессиональный (многоголосый закадровый) LostFilm
Профессиональный (многоголосый закадровый) OmskBird-Режиссёр: Дэвид Добкин / David Dobkin
В ролях: Эмили Бичем, Сара Болгер, Орла Брэйди, Мартон Чокаш, Элли Иоаннидес, Арамис Найт, Мадлен Манток, Майкл Сил, Оливер Старк, Дэниэл Ву и др.-Описание: Приключенческий боевик о двух друзьях. В пустыне смерти, какие испытания предстоит пройти главным героям на пути просвещения. Ради обретения высшей мудрости мастер боевых искусств Санни и его юный напарник решают пройти через неизведанные земли. Они знают, что там их будут встречать враждебно, но ради высшей цели главные герои готовы вынести всё. В основу сюжета сериала был положен китайский роман под названием «Путешествие на Запад». Во время путешествия Санни покажет в полной мере своё мастерство, а его юный друг сможет многому научиться, и владению собственным телом, и контролю над собственным духом.- -Ссылка на предыдущие и альтернативные раздачи-Качество: WEBRip 1080p
Контейнер: MKV
Видео: H.264, 1920x1080 (16:9), 23.976 fps, ~10500 kbps, 0.210 bit/pixel
Аудио # rus: AC3, 48 kHz, 6 ch, 640 kbps | LostFilm
Аудио # rus: AC3, 48 kHz, 6 ch, 640 kbps | OmskBird
Аудио # eng: AC3, 48 kHz, 6 ch, 640 kbps
Субтитры: Русские, английские
Реклама: отсутствует

Подготовка релиза

Релиз: Grandfather61
особая благодарность OmskBird за предоставленные голоса
Дорожка 1 получена наложением выделенных голосов от «LostFilm» на центр оригинального AC3.
Дорожка 2 получена наложением чистых голосов от «OmskBird» на центр оригинального AC3.
Монтаж, работа со звуком: Grandfather61
Перевод субтитров: OmskBird

Список серий

01. Tiger Pushes Mountain
02. Force of Eagle's Claw
03. Red Sun, Silver Moon
04. Palm of the Iron Fox
05. Monkey Leaps Through Mist
06. Leopard Stalks in Snow
07. Чёрное сердце, белая гора (Black Heart, White Mountain)
08. Жало скорпиона (Sting of the Scorpion's Tail)
09. Соловей больше не поёт (Nightingale Sings No More)
10. Дыхание волка, пламя дракона (Wolf's Breath, Dragon Fire)

MediaInfo

General
Unique ID : 251444305662934625857188482699620705469 (0xBD2A69693F34FD3FAEBC161BBD96E4BD)
Complete name : G:\Films\Into.the.Badlands.S02.1080p.WEBRip\Into.the.Badlands.S02E01.1080p.WEBRip.2xRus,Eng.DD5.1.mkv
Format : Matroska
Format version : Version 4 / Version 2
File size : 3.73 GiB
Duration : 43mn 6s
Overall bit rate : 12.4 Mbps
Encoded date : UTC 2017-04-01 11:15:25
Writing application : mkvmerge v9.9.0 ('Pick Up') 64bit
Writing library : libebml v1.3.4 + libmatroska v1.4.5
Video
ID : 1
Format : AVC
Format/Info : Advanced Video Codec
Format profile : [email protected]
Format settings, CABAC : Yes
Format settings, ReFrames : 4 frames
Codec ID : V_MPEG4/ISO/AVC
Duration : 43mn 5s
Bit rate : 10.5 Mbps
Width : 1 920 pixels
Height : 1 080 pixels
Display aspect ratio : 16:9
Frame rate mode : Constant
Frame rate : 23.976 (24000/1001) fps
Color space : YUV
Chroma subsampling : 4:2:0
Bit depth : 8 bits
Scan type : Progressive
Bits/(Pixel*Frame) : 0.210
Stream size : 3.15 GiB (84%)
Writing library : x264 core 148 r2638 7599210
Encoding settings : cabac=1 / ref=4 / deblock=1:-3:-3 / analyse=0x3:0x133 / me=umh / subme=10 / psy=1 / psy_rd=1.00:0.00 / mixed_ref=1 / me_range=48 / chroma_me=1 / trellis=2 / 8x8dct=1 / cqm=0 / deadzone=21,11 / fast_pskip=0 / chroma_qp_offset=-2 / threads=12 / lookahead_threads=2 / sliced_threads=0 / nr=0 / decimate=0 / interlaced=0 / bluray_compat=0 / constrained_intra=0 / bframes=9 / b_pyramid=0 / b_adapt=2 / b_bias=0 / direct=3 / weightb=1 / open_gop=0 / weightp=2 / keyint=240 / keyint_min=23 / scenecut=40 / intra_refresh=0 / rc=crf / mbtree=0 / crf=17.0 / qcomp=0.60 / qpmin=10 / qpmax=51 / qpstep=4 / ip_ratio=1.40 / pb_ratio=1.30 / aq=3:0.70
Language : English
Default : Yes
Forced : No
Audio #1
ID : 2
Format : AC-3
Format/Info : Audio Coding 3
Mode extension : CM (complete main)
Format settings, Endianness : Big
Codec ID : A_AC3
Duration : 43mn 6s
Bit rate mode : Constant
Bit rate : 640 Kbps
Channel(s) : 6 channels
Channel positions : Front: L C R, Side: L R, LFE
Sampling rate : 48.0 KHz
Frame rate : 31.250 fps (1536 spf)
Compression mode : Lossy
Stream size : 197 MiB (5%)
Title : LostFilm 5.1
Language : Russian
Default : Yes
Forced : No
Audio #2
ID : 3
Format : AC-3
Format/Info : Audio Coding 3
Mode extension : CM (complete main)
Format settings, Endianness : Big
Codec ID : A_AC3
Duration : 43mn 6s
Bit rate mode : Constant
Bit rate : 640 Kbps
Channel(s) : 6 channels
Channel positions : Front: L C R, Side: L R, LFE
Sampling rate : 48.0 KHz
Frame rate : 31.250 fps (1536 spf)
Compression mode : Lossy
Stream size : 197 MiB (5%)
Title : OmskBird 5.1
Language : Russian
Default : No
Forced : No
Audio #3
ID : 4
Format : AC-3
Format/Info : Audio Coding 3
Mode extension : CM (complete main)
Format settings, Endianness : Big
Codec ID : A_AC3
Duration : 43mn 6s
Bit rate mode : Constant
Bit rate : 640 Kbps
Channel(s) : 6 channels
Channel positions : Front: L C R, Side: L R, LFE
Sampling rate : 48.0 KHz
Frame rate : 31.250 fps (1536 spf)
Compression mode : Lossy
Stream size : 197 MiB (5%)
Title : eng
Language : English
Default : No
Forced : No
Text #1
ID : 5
Format : UTF-8
Codec ID : S_TEXT/UTF8
Codec ID/Info : UTF-8 Plain Text
Duration : 42mn 5s
Bit rate : 63 bps
Count of elements : 472
Stream size : 19.5 KiB (0%)
Title : rus (OmskBird)
Language : Russian
Default : No
Forced : No
Text #2
ID : 6
Format : UTF-8
Codec ID : S_TEXT/UTF8
Codec ID/Info : UTF-8 Plain Text
Duration : 42mn 21s
Bit rate : 47 bps
Count of elements : 592
Stream size : 14.6 KiB (0%)
Title : eng
Language : English
Default : No
Forced : No

Скриншоты

Внимание! Раздача ведётся путём добавления новых серий.

Внимание! Раздача ведётся путём добавления новых серий; при каждом добавлении создётся новый торрент. Чтобы начать докачку новой серии, пользователям необходимо сделать следующее:
Остановить скачивание.
Удалить старый торрент у себя из клиента (старые серии удалять не надо).
Скачать новый торрент и запустить его у себя в клиенте вместо старого, при этом указать клиенту путь в старую папку куда и должно происходить скачивание новых серий.
Ваш клиент при этом должен произвести хеширование (проверку) старой папки (если не производит сам - помогите ему сделать это), и будет докачивать только те серии которых у вас ещё нет. Старые серии при этом не удаляются, а продолжают раздаваться!
Eсли вы уже удалили старые серии, то предотвратить повторную закачку старых серий можно, отжав галочку в соответсвующих местах при запуске нового торрента. По возможности, желательно не удалять старые серии как можно дольше чтобы релизёр не столько продолжал раздавать старые серии, а смог сконцентрироваться на новых.
[freetreker.nl].t53.torrent 
 ЗОЛОТАЯ РАЗДАЧА! СКАЧАННОЕ НЕ ЗАСЧИТЫВАЕТСЯ! 
Торрент: Зарегистрирован [ 2017-07-26 10:16 ] · 94FDA06A1D10817F65F366B4676EF40003F45C1B

Скачать .torrent

Скачать

92 KB

Статус: проверено
Скачан: 0 раз
Размер: 36,1 GB
terms.php
Похожие темы:
[Профиль] [ЛС]
Показать сообщения:    
Ответить на тему

Текущее время: 19-Дек 03:01

Часовой пояс: UTC ± 0



Вы не можете начинать темы
Вы не можете отвечать на сообщения
Вы не можете редактировать свои сообщения
Вы не можете удалять свои сообщения
Вы не можете голосовать в опросах
Вы не можете прикреплять файлы к сообщениям
Вы можете скачивать файлы