В пустыне смерти / Into the Badlands / Сезон: 2 / Серии: 1-10 из 10 (Дэвид Добкин / David Dobkin) [2017, США, Боевик, драма, приключения, экранизация, WEB-DL 1080p] MVO (OmskBird)

Ответить на тему
Статистика раздачи
Размер:  17,65 GB   |    Зарегистрирован:  7 месяцев 5 дней   |    Скачан:  0 раз

Полного источника не было: Никогда

 
     
 
 
 
Автор Сообщение

Grandfather61 ®

Пол: Мужской

Стаж: 1 год

Сообщений: 558

Создавать темы 26-Июл-2017 10:21

[Цитировать]

--В пустыне смерти / Into the Badlands-- Год выпуска: 2017
Страна: США
Жанр: Боевик, драма, приключения, экранизация
Продолжительность: ~ 00:45:00-Перевод: Профессиональный (многоголосый закадровый) OmskBird-Режиссёр: Дэвид Добкин / David Dobkin
В ролях: Эмили Бичем, Сара Болгер, Орла Брэйди, Мартон Чокаш, Элли Иоаннидес, Арамис Найт, Мадлен Манток, Майкл Сил, Оливер Старк, Дэниэл Ву и др.-Описание: Приключенческий боевик о двух друзьях. В пустыне смерти, какие испытания предстоит пройти главным героям на пути просвещения. Ради обретения высшей мудрости мастер боевых искусств Санни и его юный напарник решают пройти через неизведанные земли. Они знают, что там их будут встречать враждебно, но ради высшей цели главные герои готовы вынести всё. В основу сюжета сериала был положен китайский роман под названием «Путешествие на Запад». Во время путешествия Санни покажет в полной мере своё мастерство, а его юный друг сможет многому научиться, и владению собственным телом, и контролю над собственным духом.-Доп. информация:
Релиз-группа:
Перевод: Татьяна Масаковская
Роли озвучивали: Павел Ярощик, Алексей Гнеушев, Наталья Ланц
Звукорежиссер: Павел Квентов
Постер: Ксения Просветова
Монтаж и сведение звука: Юрий Гамов- -Ссылка на предыдущие и альтернативные раздачи-Качество: WEB-DL 1080p
Контейнер: MKV
Видео: H.264, 1916x1076 (16:9), 23.976 fps, ~5165 kbps, 0.104 bit/pixel
Аудио # rus: AC3, 48 kHz, 6 ch, 384 kbps
Аудио # eng: AC3, 48 kHz, 6 ch, 384 kbps
Субтитры: Английские
Реклама: присутствуют аудио вставки рекламы (в начале и в конце по 10 сек.)

Список серий

01. Tiger Pushes Mountain
02. Force of Eagle's Claw
03. Red Sun, Silver Moon
04. Palm of the Iron Fox
05. Monkey Leaps Through Mist
06. Leopard Stalks in Snow
07. Black Heart, White Mountain
08. Sting of the Scorpion's Tail
09. Nightingale Sings No More
10. Wolf's Breath, Dragon Fire

MediaInfo

General
Unique ID : 254620131622899351690688911622876122361 (0xBF8E0DB850026B168BB87B6CCF134CF9)
Complete name : G:\Films\Into.the.Badlands.S02.1080p.WEB-DL.OmskBird\Into.the.Badlands.S02E01.1080p.WEB-DL.OmskBird.mkv
Format : Matroska
Format version : Version 4 / Version 2
File size : 1.79 GiB
Duration : 43mn 6s
Overall bit rate : 5 935 Kbps
Encoded date : UTC 2017-03-21 04:50:08
Writing application : mkvmerge v9.9.0 ('Pick Up') 64bit
Writing library : libebml v1.3.4 + libmatroska v1.4.5
Video
ID : 1
Format : AVC
Format/Info : Advanced Video Codec
Format profile : High@L4
Format settings, CABAC : Yes
Format settings, ReFrames : 4 frames
Codec ID : V_MPEG4/ISO/AVC
Duration : 43mn 6s
Bit rate : 5 165 Kbps
Width : 1 916 pixels
Height : 1 076 pixels
Display aspect ratio : 16:9
Frame rate mode : Constant
Frame rate : 23.976 (24000/1001) fps
Color space : YUV
Chroma subsampling : 4:2:0
Bit depth : 8 bits
Scan type : Progressive
Bits/(Pixel*Frame) : 0.104
Stream size : 1.55 GiB (87%)
Language : English
Default : Yes
Forced : No
Color range : Limited
Color primaries : BT.709
Transfer characteristics : BT.709
Matrix coefficients : BT.709
Audio #1
ID : 2
Format : AC-3
Format/Info : Audio Coding 3
Mode extension : CM (complete main)
Format settings, Endianness : Big
Codec ID : A_AC3
Duration : 43mn 6s
Bit rate mode : Constant
Bit rate : 384 Kbps
Channel(s) : 6 channels
Channel positions : Front: L C R, Side: L R, LFE
Sampling rate : 48.0 KHz
Frame rate : 31.250 fps (1536 spf)
Compression mode : Lossy
Stream size : 118 MiB (6%)
Title : OmskBird 5.1
Language : Russian
Default : Yes
Forced : No
Audio #2
ID : 3
Format : AC-3
Format/Info : Audio Coding 3
Mode extension : CM (complete main)
Format settings, Endianness : Big
Codec ID : A_AC3
Duration : 43mn 6s
Bit rate mode : Constant
Bit rate : 384 Kbps
Channel(s) : 6 channels
Channel positions : Front: L C R, Side: L R, LFE
Sampling rate : 48.0 KHz
Frame rate : 31.250 fps (1536 spf)
Compression mode : Lossy
Stream size : 118 MiB (6%)
Title : eng
Language : English
Default : No
Forced : No
Text
ID : 4
Format : UTF-8
Codec ID : S_TEXT/UTF8
Codec ID/Info : UTF-8 Plain Text
Duration : 42mn 5s
Bit rate : 42 bps
Count of elements : 478
Stream size : 13.2 KiB (0%)
Title : eng
Language : English
Default : No
Forced : No

Скриншоты

Внимание! Раздача ведётся путём добавления новых серий.

Внимание! Раздача ведётся путём добавления новых серий; при каждом добавлении создётся новый торрент. Чтобы начать докачку новой серии, пользователям необходимо сделать следующее:
Остановить скачивание.
Удалить старый торрент у себя из клиента (старые серии удалять не надо).
Скачать новый торрент и запустить его у себя в клиенте вместо старого, при этом указать клиенту путь в старую папку куда и должно происходить скачивание новых серий.
Ваш клиент при этом должен произвести хеширование (проверку) старой папки (если не производит сам - помогите ему сделать это), и будет докачивать только те серии которых у вас ещё нет. Старые серии при этом не удаляются, а продолжают раздаваться!
Eсли вы уже удалили старые серии, то предотвратить повторную закачку старых серий можно, отжав галочку в соответсвующих местах при запуске нового торрента. По возможности, желательно не удалять старые серии как можно дольше чтобы релизёр не столько продолжал раздавать старые серии, а смог сконцентрироваться на новых.
[freetreker.nl].t54.torrent 
Торрент: Зарегистрирован [ 2017-12-14 06:42 ] · 6F1FB1BA344FB6BA7B7BDD7B382538DAB7DFB2B4

Скачать .torrent

Скачать

45 KB

Статус: проверено
Скачан: 0 раз
Размер: 17,65 GB
terms.php
Похожие темы:
[Профиль] [ЛС]
Показать сообщения:    
Ответить на тему

Текущее время: 20-Июл 03:11

Часовой пояс: UTC ± 0



Вы не можете начинать темы
Вы не можете отвечать на сообщения
Вы не можете редактировать свои сообщения
Вы не можете удалять свои сообщения
Вы не можете голосовать в опросах
Вы не можете прикреплять файлы к сообщениям
Вы можете скачивать файлы