Миднайт, Техас / Midnight, Texas / Сезон 1 / Серии 1-10 (10) (Моника Брин) [2017, США, мистика, драма, WEB-DL 1080p] MVO (OMSKBIRD)

Ответить на тему
Статистика раздачи
Размер:  32,8 GB   |    Зарегистрирован:  1 год 2 месяца   |    Скачан:  1 раз

Полного источника не было: 1 год 1 месяц

 
     
 
 
 
Автор Сообщение

Gater ®

Пол: Не указан

Стаж: 1 год 5 месяцев

Сообщений: 1582

Создавать темы 26-Июл-2017 10:36

[Цитировать]

-Миднайт, Техас / Midnight, Texas- Год выпуска • 2017
Страна • США
Жанр • Мистика, драма
Продолжительность • ~44 мин.
Перевод
• Профессиональный (многоголосый, закадровый) "OMSKBIRD records"
-Создатель • Моника Брин
В ролях • Франсуа Арно, Дилан Брюс, Ариэль Кеббел, Джейсон Льюис, Питер Менса, Париса Фитц-Хенли, Келли Стюарт и др.-Описание • События мистической драмы развернутся в маленьком техасском городке Миднайт, ставшем безопасным пристанищем для вампиров, ведьм, экстрасенсов, киллеров и всех прочих, кто отличается от обычных людей. Всех их, включая ясновидцев, телепатов, ангелов с крыльями и прочую нечисть сослали в техасскую дыру, где они вынуждены сосуществовать в мире и согласии. Но однажды там происходит самое настоящее убийство, и теперь главному герою Манфреду (Франсуа Арно) предстоит разобраться, что случилось, и по возможности сохранить как мир, так и согласие.-Реклама: аудио (два раза, в начале и конце, по 15 сек.)-
Качество: Amazon WEB-DL 1080p
Формат: MKV
Видео: MPEG-4 AVC / ~ 7500 kbps / 1920х1080p / 23.976 fps / 16:9 / ~ 0.150 bit/pixel / High Level 4.0
Аудио:
Русский / Dolby Digital 5.1 / 48 kHz / 384 kbps
English / Dolby Digital 5.1 / 48 kHz / 384 kbps
Субтитры: Eng / SRT-

- -

Над переводом работали

ПереводТатьяна Масаковская
Роли озвучивалиДенис Строев, Павел Ярощик, Наталья Ланц
ЗвукорежиссерПавел Квентов
ПостерКсения Просветова
Релиз подготовилGater

MediaInfo


General
Unique ID : 220721505696741138384436906955269481353 (0xA60D6A6C9220EC1EBC852C20B9FC2389)
Complete name : F:\Мои Документы\Видео\РАЗДАЧИ\Штамм\The Strain S04 WEBRip 1080p (OMSKBIRD)\The Strain S04E01 WEBRip 1080p (OMSKBIRD).mkv
Format : Matroska
Format version : Version 2
File size : 3.77 GiB
Duration : 47mn 3s
Overall bit rate : 11.5 Mbps
Encoded date : UTC 2017-07-18 11:29:23
Writing application : mkvmerge v4.0.0 ('The Stars were mine') сборка от Jun 6 2010 16:18:42
Writing library : libebml v1.0.0 + libmatroska v1.0.0
Video
ID : 1
Format : AVC
Format/Info : Advanced Video Codec
Format profile : [email protected]
Format settings, CABAC : Yes
Format settings, ReFrames : 4 frames
Codec ID : V_MPEG4/ISO/AVC
Duration : 47mn 3s
Bit rate : 10.5 Mbps
Width : 1 920 pixels
Height : 1 080 pixels
Display aspect ratio : 16:9
Frame rate : 23.976 fps
Color space : YUV
Chroma subsampling : 4:2:0
Bit depth : 8 bits
Scan type : Progressive
Bits/(Pixel*Frame) : 0.211
Stream size : 3.45 GiB (91%)
Writing library : x264 core 152 r2851 ba24899
Encoding settings : cabac=1 / ref=4 / deblock=1:-3:-3 / analyse=0x3:0x113 / me=umh / subme=9 / psy=1 / psy_rd=1.00:0.15 / mixed_ref=1 / me_range=32 / chroma_me=1 / trellis=2 / 8x8dct=1 / cqm=0 / deadzone=21,11 / fast_pskip=0 / chroma_qp_offset=-2 / threads=34 / lookahead_threads=2 / sliced_threads=0 / nr=0 / decimate=1 / interlaced=0 / bluray_compat=0 / constrained_intra=0 / bframes=3 / b_pyramid=2 / b_adapt=1 / b_bias=0 / direct=3 / weightb=1 / open_gop=0 / weightp=2 / keyint=240 / keyint_min=23 / scenecut=40 / intra_refresh=0 / rc_lookahead=50 / rc=crf / mbtree=1 / crf=17.0 / qcomp=0.60 / qpmin=0 / qpmax=69 / qpstep=4 / ip_ratio=1.40 / aq=3:0.80
Default : No
Forced : No
Audio #1
ID : 2
Format : AC-3
Format/Info : Audio Coding 3
Mode extension : CM (complete main)
Format settings, Endianness : Big
Codec ID : A_AC3
Duration : 47mn 3s
Bit rate mode : Constant
Bit rate : 384 Kbps
Channel(s) : 6 channels
Channel positions : Front: L C R, Side: L R, LFE
Sampling rate : 48.0 KHz
Bit depth : 16 bits
Compression mode : Lossy
Delay relative to video : -208ms
Stream size : 129 MiB (3%)
Language : Russian
Default : Yes
Forced : No
Audio #2
ID : 3
Format : AC-3
Format/Info : Audio Coding 3
Mode extension : CM (complete main)
Format settings, Endianness : Big
Codec ID : A_AC3
Duration : 47mn 3s
Bit rate mode : Constant
Bit rate : 384 Kbps
Channel(s) : 6 channels
Channel positions : Front: L C R, Side: L R, LFE
Sampling rate : 48.0 KHz
Bit depth : 16 bits
Compression mode : Lossy
Delay relative to video : -208ms
Stream size : 129 MiB (3%)
Language : English
Default : No
Forced : No
[freetreker.nl].t55.torrent 
 ЗОЛОТАЯ РАЗДАЧА! СКАЧАННОЕ НЕ ЗАСЧИТЫВАЕТСЯ! 
Торрент: Зарегистрирован [ 2017-09-21 11:36 ] · 76CB383D422E8BA90F52078A43DCA75552C36453

Скачать .torrent

Скачать

83 KB

Статус: проверено
Скачан: 1 раз
Размер: 32,8 GB
terms.php
Похожие темы:


Последний раз редактировалось: Gater (2017-09-21 11:36), всего редактировалось 8 раз(а)
[Профиль] [ЛС]

Gater ®

Пол: Не указан

Стаж: 1 год 5 месяцев

Сообщений: 1582

Создавать темы 02-Авг-2017 10:03 (спустя 6 дней)

[Цитировать]

+2
[Профиль] [ЛС]

Gater ®

Пол: Не указан

Стаж: 1 год 5 месяцев

Сообщений: 1582

Создавать темы 09-Авг-2017 18:39 (спустя 7 дней)

[Цитировать]

Добавлена 3-ая серия.
[Профиль] [ЛС]

Gater ®

Пол: Не указан

Стаж: 1 год 5 месяцев

Сообщений: 1582

Создавать темы 17-Авг-2017 13:57 (спустя 7 дней)

[Цитировать]

Добавлена 4-ая серия.
[Профиль] [ЛС]

Gater ®

Пол: Не указан

Стаж: 1 год 5 месяцев

Сообщений: 1582

Создавать темы 24-Авг-2017 12:15 (спустя 6 дней)

[Цитировать]

Добавлена 5-ая серия
[Профиль] [ЛС]

Gater ®

Пол: Не указан

Стаж: 1 год 5 месяцев

Сообщений: 1582

Создавать темы 30-Авг-2017 12:50 (спустя 6 дней)

[Цитировать]

Добавлена 6-ая серия
[Профиль] [ЛС]

Gater ®

Пол: Не указан

Стаж: 1 год 5 месяцев

Сообщений: 1582

Создавать темы 06-Сен-2017 17:51 (спустя 7 дней)

[Цитировать]

+7
[Профиль] [ЛС]

Gater ®

Пол: Не указан

Стаж: 1 год 5 месяцев

Сообщений: 1582

Создавать темы 13-Сен-2017 17:05 (спустя 6 дней)

[Цитировать]

Добавлена 8-ая серия
[Профиль] [ЛС]

Gater ®

Пол: Не указан

Стаж: 1 год 5 месяцев

Сообщений: 1582

Создавать темы 15-Сен-2017 16:10 (спустя 1 день 23 часа)

[Цитировать]

+9
[Профиль] [ЛС]

Gater ®

Пол: Не указан

Стаж: 1 год 5 месяцев

Сообщений: 1582

Создавать темы 21-Сен-2017 11:36 (спустя 5 дней)

[Цитировать]

+10
Финал сезона.
[Профиль] [ЛС]
Показать сообщения:    
Ответить на тему

Текущее время: 19-Дек 03:41

Часовой пояс: UTC ± 0



Вы не можете начинать темы
Вы не можете отвечать на сообщения
Вы не можете редактировать свои сообщения
Вы не можете удалять свои сообщения
Вы не можете голосовать в опросах
Вы не можете прикреплять файлы к сообщениям
Вы можете скачивать файлы