Миднайт, Техас / Midnight, Texas / Сезон 1 / Серии 1-10 (10) (Моника Брин) [2017, США, мистика, драма, WEB-DLRip 720p] MVO (OMSKBIRD)

Ответить на тему
Статистика раздачи
Размер:  9,53 GB   |    Зарегистрирован:  6 месяцев 29 дней   |    Скачан:  0 раз

Полного источника не было: 5 месяцев 22 дня

 
     
 
 
 
Автор Сообщение

Gater ®

Пол: Не указан

Стаж: 9 месяцев 11 дней

Сообщений: 948

Создавать темы 26-Июл-2017 10:37

[Цитировать]

-Миднайт, Техас / Midnight, Texas- Год выпуска • 2017
Страна • США
Жанр • Мистика, драма
Продолжительность • ~44 мин.
Перевод
• Профессиональный (многоголосый, закадровый) "OMSKBIRD records"
-Создатель • Моника Брин
В ролях • Франсуа Арно, Дилан Брюс, Ариэль Кеббел, Джейсон Льюис, Питер Менса, Париса Фитц-Хенли, Келли Стюарт и др.-Описание • События мистической драмы развернутся в маленьком техасском городке Миднайт, ставшем безопасным пристанищем для вампиров, ведьм, экстрасенсов, киллеров и всех прочих, кто отличается от обычных людей. Всех их, включая ясновидцев, телепатов, ангелов с крыльями и прочую нечисть сослали в техасскую дыру, где они вынуждены сосуществовать в мире и согласии. Но однажды там происходит самое настоящее убийство, и теперь главному герою Манфреду (Франсуа Арно) предстоит разобраться, что случилось, и по возможности сохранить как мир, так и согласие.-Реклама: аудио (два раза, в начале и конце, по 15 сек.)-
Качество: Amazon WEB-DLRip 720p
Формат: MKV
Видео: MPEG-4 AVC / ~ 3000 kbps / 1280х720p / 23.976 fps / 16:9
Аудио:
Русский / Dolby Digital 2.0 / 48 kHz / 192 kbps-

- -

Над переводом работали

ПереводТатьяна Масаковская
Роли озвучивалиДенис Строев, Павел Ярощик, Наталья Ланц
ЗвукорежиссерПавел Квентов
ПостерКсения Просветова
Релиз подготовилGater

MediaInfo


General
Unique ID : 231766778209044003075411046239605248875 (0xAE5CA867548EB990B3D0C827C41A536B)
Complete name : F:\Мои Документы\Видео\РАЗДАЧИ\Миднайт\Midnight Texas S01 WEB-DLRip 720p (OMSKBIRD)\Midnight Texas S01E01 WEB-DLRip 720p (OMSKBIRD).mkv
Format : Matroska
Format version : Version 2
File size : 982 MiB
Duration : 43mn 29s
Overall bit rate : 3 155 Kbps
Encoded date : UTC 2017-07-26 09:04:42
Writing application : mkvmerge v4.0.0 ('The Stars were mine') сборка от Jun 6 2010 16:18:42
Writing library : libebml v1.0.0 + libmatroska v1.0.0
Video
ID : 1
Format : AVC
Format/Info : Advanced Video Codec
Format profile : Main@L3.2
Format settings, CABAC : Yes
Format settings, ReFrames : 3 frames
Codec ID : V_MPEG4/ISO/AVC
Duration : 43mn 29s
Bit rate : 2 900 Kbps
Width : 1 280 pixels
Height : 720 pixels
Display aspect ratio : 16:9
Frame rate : 23.976 fps
Standard : PAL
Color space : YUV
Chroma subsampling : 4:2:0
Bit depth : 8 bits
Scan type : Progressive
Bits/(Pixel*Frame) : 0.131
Stream size : 902 MiB (92%)
Language : English
Default : Yes
Forced : No
Color primaries : BT.709-5, BT.1361, IEC 61966-2-4, SMPTE RP177
Transfer characteristics : BT.709-5, BT.1361
Matrix coefficients : BT.709-5, BT.1361, IEC 61966-2-4 709, SMPTE RP177
Audio
ID : 2
Format : AC-3
Format/Info : Audio Coding 3
Mode extension : CM (complete main)
Format settings, Endianness : Big
Codec ID : A_AC3
Duration : 43mn 29s
Bit rate mode : Constant
Bit rate : 192 Kbps
Channel(s) : 2 channels
Channel positions : Front: L R
Sampling rate : 48.0 KHz
Bit depth : 16 bits
Compression mode : Lossy
Stream size : 59.7 MiB (6%)
Default : Yes
Forced : No
[freetreker.nl].t56.torrent 
 ЗОЛОТАЯ РАЗДАЧА! СКАЧАННОЕ НЕ ЗАСЧИТЫВАЕТСЯ! 
Торрент: Зарегистрирован [ 2017-09-21 11:36 ] · EE8E5ABA196F232844319B9EC85FEAE4EAA89BA8

Скачать .torrent

Скачать

25 KB

Статус: проверено
Скачан: 0 раз
Размер: 9,53 GB
terms.php
Похожие темы:


Последний раз редактировалось: Gater (2017-09-21 11:36), всего редактировалось 8 раз(а)
[Профиль] [ЛС]

Gater ®

Пол: Не указан

Стаж: 9 месяцев 11 дней

Сообщений: 948

Создавать темы 02-Авг-2017 10:03 (спустя 6 дней)

[Цитировать]

+2
[Профиль] [ЛС]

Gater ®

Пол: Не указан

Стаж: 9 месяцев 11 дней

Сообщений: 948

Создавать темы 09-Авг-2017 18:40 (спустя 7 дней)

[Цитировать]

Добавлена 3-ая серия.
[Профиль] [ЛС]

Gater ®

Пол: Не указан

Стаж: 9 месяцев 11 дней

Сообщений: 948

Создавать темы 16-Авг-2017 16:34 (спустя 6 дней)

[Цитировать]

Добавлена 4-ая серия
[Профиль] [ЛС]

Gater ®

Пол: Не указан

Стаж: 9 месяцев 11 дней

Сообщений: 948

Создавать темы 24-Авг-2017 12:15 (спустя 7 дней)

[Цитировать]

Добавлена 5-ая серия
[Профиль] [ЛС]

Gater ®

Пол: Не указан

Стаж: 9 месяцев 11 дней

Сообщений: 948

Создавать темы 30-Авг-2017 12:51 (спустя 6 дней)

[Цитировать]

Добавлена 6-ая серия
[Профиль] [ЛС]

Gater ®

Пол: Не указан

Стаж: 9 месяцев 11 дней

Сообщений: 948

Создавать темы 06-Сен-2017 17:52 (спустя 7 дней)

[Цитировать]

+7
[Профиль] [ЛС]

Gater ®

Пол: Не указан

Стаж: 9 месяцев 11 дней

Сообщений: 948

Создавать темы 13-Сен-2017 17:05 (спустя 6 дней)

[Цитировать]

Добавлена 8-ая серия
[Профиль] [ЛС]

Gater ®

Пол: Не указан

Стаж: 9 месяцев 11 дней

Сообщений: 948

Создавать темы 15-Сен-2017 16:10 (спустя 1 день 23 часа)

[Цитировать]

+9
[Профиль] [ЛС]

Gater ®

Пол: Не указан

Стаж: 9 месяцев 11 дней

Сообщений: 948

Создавать темы 21-Сен-2017 11:36 (спустя 5 дней)

[Цитировать]

+10
Финал сезона.
[Профиль] [ЛС]
Показать сообщения:    
Ответить на тему

Текущее время: 21-Апр 00:00

Часовой пояс: UTC ± 0



Вы не можете начинать темы
Вы не можете отвечать на сообщения
Вы не можете редактировать свои сообщения
Вы не можете удалять свои сообщения
Вы не можете голосовать в опросах
Вы не можете прикреплять файлы к сообщениям
Вы можете скачивать файлы