Миднайт, Техас / Midnight, Texas / Сезон 1 / Серии 1-10 (10) (Моника Брин) [2017, США, мистика, драма, WEB-DLRip] MVO (OMSKBIRD)

Ответить на тему
Статистика раздачи
Размер:  6,02 GB   |    Зарегистрирован:  1 год 2 месяца   |    Скачан:  0 раз

Полного источника не было: 1 год 1 месяц

 
     
 
 
 
Автор Сообщение

Gater ®

Пол: Не указан

Стаж: 1 год 5 месяцев

Сообщений: 1555

Создавать темы 26-Июл-2017 10:37

[Цитировать]

-Миднайт, Техас / Midnight, Texas- Год выпуска • 2017
Страна • США
Жанр • Мистика, драма
Продолжительность • ~44 мин.
Перевод
• Профессиональный (многоголосый, закадровый) "OMSKBIRD records"
-Создатель • Моника Брин
В ролях • Франсуа Арно, Дилан Брюс, Ариэль Кеббел, Джейсон Льюис, Питер Менса, Париса Фитц-Хенли, Келли Стюарт и др.-Описание • События мистической драмы развернутся в маленьком техасском городке Миднайт, ставшем безопасным пристанищем для вампиров, ведьм, экстрасенсов, киллеров и всех прочих, кто отличается от обычных людей. Всех их, включая ясновидцев, телепатов, ангелов с крыльями и прочую нечисть сослали в техасскую дыру, где они вынуждены сосуществовать в мире и согласии. Но однажды там происходит самое настоящее убийство, и теперь главному герою Манфреду (Франсуа Арно) предстоит разобраться, что случилось, и по возможности сохранить как мир, так и согласие.-Реклама: аудио (два раза, в начале и конце, по 15 сек.)-
Качество: Amazon WEB-DLRip
Формат: Avi
Видео: Xvid / ~ 1800 kbps / 720х400p / 23.976 fps / 16:9
Аудио:
Русский / Dolby Digital 2.0 / 48 kHz / 192 kbps-

- -

Над переводом работали

ПереводТатьяна Масаковская
Роли озвучивалиДенис Строев, Павел Ярощик, Наталья Ланц
ЗвукорежиссерПавел Квентов
ПостерКсения Просветова
Релиз подготовилGater

MediaInfo


General
Complete name : F:\Мои Документы\Видео\РАЗДАЧИ\Миднайт\Midnight Texas S01 WEB-DLRip (OMSKBIRD)\Midnight Texas S01E01 WEB-DLRip (OMSKBIRD).avi
Format : AVI
Format/Info : Audio Video Interleave
File size : 616 MiB
Duration : 43mn 29s
Overall bit rate : 1 980 Kbps
Writing application : VirtualDubMod 1.5.10.3 | www.virtualdub-fr.org || (build 2550/release)
Writing library : VirtualDubMod build 2550/release
Video
ID : 0
Format : MPEG-4 Visual
Format profile : Advanced [email protected]
Format settings, BVOP : 2
Format settings, QPel : No
Format settings, GMC : No warppoints
Format settings, Matrix : Default (H.263)
Codec ID : XVID
Codec ID/Hint : XviD
Duration : 43mn 29s
Bit rate : 1 779 Kbps
Width : 720 pixels
Height : 400 pixels
Display aspect ratio : 16:9
Frame rate : 23.976 fps
Color space : YUV
Chroma subsampling : 4:2:0
Bit depth : 8 bits
Scan type : Progressive
Compression mode : Lossy
Bits/(Pixel*Frame) : 0.258
Stream size : 553 MiB (90%)
Writing library : XviD 1.2.1 (UTC 2008-12-04)
Audio
ID : 1
Format : AC-3
Format/Info : Audio Coding 3
Mode extension : CM (complete main)
Format settings, Endianness : Big
Codec ID : 2000
Duration : 43mn 29s
Bit rate mode : Constant
Bit rate : 192 Kbps
Channel(s) : 2 channels
Channel positions : Front: L R
Sampling rate : 48.0 KHz
Bit depth : 16 bits
Compression mode : Lossy
Stream size : 59.7 MiB (10%)
Alignment : Split accross interleaves
Interleave, duration : 42 ms (1.00 video frame)
Interleave, preload duration : 500 ms
[freetreker.nl].t57.torrent 
 ЗОЛОТАЯ РАЗДАЧА! СКАЧАННОЕ НЕ ЗАСЧИТЫВАЕТСЯ! 
Торрент: Зарегистрирован [ 2017-09-21 11:35 ] · EDB70BB71CCA29E9152DCCA5B2575311B7130B05

Скачать .torrent

Скачать

16 KB

Статус: проверено
Скачан: 0 раз
Размер: 6,02 GB
terms.php
Похожие темы:


Последний раз редактировалось: Gater (2017-09-21 11:35), всего редактировалось 8 раз(а)
[Профиль] [ЛС]

Gater ®

Пол: Не указан

Стаж: 1 год 5 месяцев

Сообщений: 1555

Создавать темы 02-Авг-2017 10:03 (спустя 6 дней)

[Цитировать]

+2
[Профиль] [ЛС]

Gater ®

Пол: Не указан

Стаж: 1 год 5 месяцев

Сообщений: 1555

Создавать темы 09-Авг-2017 18:40 (спустя 7 дней)

[Цитировать]

Добавлена 3-ая серия.
[Профиль] [ЛС]

Gater ®

Пол: Не указан

Стаж: 1 год 5 месяцев

Сообщений: 1555

Создавать темы 16-Авг-2017 16:35 (спустя 6 дней)

[Цитировать]

Добавлена 4-ая серия
[Профиль] [ЛС]

Gater ®

Пол: Не указан

Стаж: 1 год 5 месяцев

Сообщений: 1555

Создавать темы 24-Авг-2017 12:16 (спустя 7 дней)

[Цитировать]

Добавлена 5-ая серия
[Профиль] [ЛС]

Gater ®

Пол: Не указан

Стаж: 1 год 5 месяцев

Сообщений: 1555

Создавать темы 30-Авг-2017 12:51 (спустя 6 дней)

[Цитировать]

Добавлена 6-ая серия
[Профиль] [ЛС]

Gater ®

Пол: Не указан

Стаж: 1 год 5 месяцев

Сообщений: 1555

Создавать темы 06-Сен-2017 17:51 (спустя 7 дней)

[Цитировать]

+7
[Профиль] [ЛС]

Gater ®

Пол: Не указан

Стаж: 1 год 5 месяцев

Сообщений: 1555

Создавать темы 13-Сен-2017 17:06 (спустя 6 дней)

[Цитировать]

Добавлена 8-ая серия
[Профиль] [ЛС]

Gater ®

Пол: Не указан

Стаж: 1 год 5 месяцев

Сообщений: 1555

Создавать темы 15-Сен-2017 16:09 (спустя 1 день 23 часа)

[Цитировать]

+9
[Профиль] [ЛС]

Gater ®

Пол: Не указан

Стаж: 1 год 5 месяцев

Сообщений: 1555

Создавать темы 21-Сен-2017 11:36 (спустя 5 дней)

[Цитировать]

+10
Финал сезона.
[Профиль] [ЛС]
Показать сообщения:    
Ответить на тему

Текущее время: 12-Дек 07:01

Часовой пояс: UTC ± 0



Вы не можете начинать темы
Вы не можете отвечать на сообщения
Вы не можете редактировать свои сообщения
Вы не можете удалять свои сообщения
Вы не можете голосовать в опросах
Вы не можете прикреплять файлы к сообщениям
Вы можете скачивать файлы