Уйти красиво / Going in Style (2017) BDRip 1080p [Paradox&Omskbird]

Ответить на тему
Статистика раздачи
Размер:  6,7 GB   |    Зарегистрирован:  11 месяцев 20 дней   |    Скачан:  1 раз

Полного источника не было: 11 месяцев 4 дня

 
     
 
 
 
Автор Сообщение

studio_paradox ®

Пол: Мужской

Стаж: 1 год

Сообщений: 15

Создавать темы 30-Июл-2017 07:09

[Цитировать]

-Уйти красиво / Going in Style- Год выпуска: 2017
Жанр: Комедия, криминал
Страна: США, De Line Pictures, Metro-Goldwyn-Mayer (MGM)
Перевод: Многоголосый закадровый [Студия "Paradox" & Omskbird]
Продолжительность: 01:36:58-Режиссер: Зак Брафф
В ролях: Морган Фриман, Майкл Кейн, Алан Аркин, Энн-Маргрет, Джои Кинг, Кристофер Ллойд, Питер Серафинович, Мэтт Диллон, Шиван Фэллон, Джон Ортис-Описание: Старые друзья Вилли, Джо и Эла, несмотря на свой пенсионный возраст, впервые в жизни решают свернуть с праведного пути, чтобы сохранить свои пенсионные накопления.
Угнетенная оплатой счетов и потерей своих близких, пожилая троица решает рискнуть всем и намерена совершить ограбление банка, присвоившего их деньги.- -Качество: BDRip 1080p
Видео: MPEG4-AVC, 1920x800, 23.976 fps, 9690 kbps
Аудио: AC3, 2 ch, 192 kbps

Над озвучкой работали

[Студия "Paradox" & Omskbird records]
• Перевод: Татьяна Масаковская
• Роли озвучивали: Константин Погодаев, Алексей Гнеушев, Марина Гассан, Павел Ярощик, Максим Максимов
• Звукорежиссер: Павел Квентов
• Постер: Ксения Просветова
Присутствует реклама!

MediaInfo

Format : Matroska
Format version : Version 4 / Version 2
File size : 6.70 GiB
Duration : 1 h 36 min
Overall bit rate : 9 884 kb/s
Encoded date : UTC 2017-07-27 22:20:02
Writing application : mkvmerge v9.3.1 ('Mask Machine') 64bit
Writing library : libebml v1.3.4 + libmatroska v1.4.5
Video
ID : 1
Format : AVC
Format/Info : Advanced Video Codec
Format profile : Main@L4.1
Format settings, CABAC : Yes
Format settings, ReFrames : 3 frames
Codec ID : V_MPEG4/ISO/AVC
Duration : 1 h 36 min
Bit rate : 9 690 kb/s
Width : 1 920 pixels
Height : 800 pixels
Display aspect ratio : 2.40:1
Frame rate mode : Constant
Frame rate : 23.976 (24000/1001) FPS
Standard : NTSC
Color space : YUV
Chroma subsampling : 4:2:0
Bit depth : 8 bits
Scan type : Progressive
Bits/(Pixel*Frame) : 0.263
Stream size : 6.56 GiB (98%)
Language : English
Default : Yes
Forced : No
Color range : Limited
Color primaries : BT.709
Transfer characteristics : BT.709
Matrix coefficients : BT.709
Audio
ID : 2
Format : AC-3
Format/Info : Audio Coding 3
Mode extension : CM (complete main)
Format settings, Endianness : Big
Codec ID : A_AC3
Duration : 1 h 36 min
Bit rate mode : Constant
Bit rate : 192 kb/s
Channel(s) : 2 channels
Channel positions : Front: L R
Sampling rate : 48.0 kHz
Frame rate : 31.250 FPS (1536 spf)
Compression mode : Lossy
Stream size : 133 MiB (2%)
Default : Yes
Forced : No

Скриншоты

[freetreker.nl].t59.torrent 
 ЗОЛОТАЯ РАЗДАЧА! СКАЧАННОЕ НЕ ЗАСЧИТЫВАЕТСЯ! 
Торрент: Зарегистрирован [ 2017-07-30 07:09 ] · A2A5100D06BEC2B12492305D04CEBA08A670A3D0

Скачать .torrent

Скачать

17 KB

Статус: проверено
Скачан: 1 раз
Размер: 6,7 GB
terms.php
Похожие темы:
[Профиль] [ЛС]
Показать сообщения:    
Ответить на тему

Текущее время: 20-Июл 03:04

Часовой пояс: UTC ± 0



Вы не можете начинать темы
Вы не можете отвечать на сообщения
Вы не можете редактировать свои сообщения
Вы не можете удалять свои сообщения
Вы не можете голосовать в опросах
Вы не можете прикреплять файлы к сообщениям
Вы можете скачивать файлы