Железный Кулак / Iron Fist / Сезон: 1 / Серии: 1-13 из 13 (Джон Дал, Фэррен Блэкберн, Ута Бризвитц) [2017, США, фантастика, боевик, триллер, криминал, WEBRip 720p] MVO (LostFilm) + Original

Ответить на тему
Статистика раздачи
Размер:  37,45 GB   |    Зарегистрирован:  1 год 4 месяца   |    Скачан:  0 раз

Полного источника не было: Никогда

 
     
 
 
 
Автор Сообщение

Grandfather61 ®

Пол: Мужской

Стаж: 1 год 5 месяцев

Сообщений: 641

Создавать темы 02-Авг-2017 06:24

[Цитировать]

--Железный Кулак / Iron Fist-- Год выпуска: 2017
Страна: США
Жанр: фантастика, боевик, триллер, криминал
Продолжительность: ~ 00:55:00-Перевод: Профессиональный (многоголосый закадровый) LostFilm-Режиссёр: Джон Дал, Фэррен Блэкберн, Ута Бризвитц
В ролях: Финн Джонс, Джессика Хенвик, Джессика Строуп, Розарио Доусон, Людовик Куто, Крэйг Джерати, Тихуана Рикс и др.-Описание: Главный персонаж сериала – Дэниел Рэнд. У него есть уникальная способность полностью контролировать течение жизненной энергии ци, он владеет в совершенстве многими техниками боевых искусств, некоторые из которых являются секретными для большинства землян. Но, ничего этого не было бы, если не его отец Уэнделл Рэнд. В своей молодости Уэнделлу посчастливилось посетить тайный город К’ун-Лун, расположенный в Гималаях. Это сакральное поселение миллионы лет назад основали инопланетяне. Сейчас им правят потомки пришельцев и существа, называемые Королями Драконов. К счастью, парнишку нашли и приютили обитатели тайного города. Дэниел начал осваивать тайные боевые искусства. Тогда он не знал: мастерство воина ему понадобится не только для мщения Мичуму, виновному в гибели его отца, но и затем, чтобы бороться со всем злом на Земле.- -Ссылка на предыдущие и альтернативные раздачи-Качество: WEBRip 720p
Контейнер: MKV
Видео: H.264, 1280x720 (16:9), 23.976 fps, ~7000 kbps, 0.314 bit/pixel
Аудио # rus: 48 kHz, AC3, 3/2 (L,C,R,l,r) + LFE ch, ~384.00 kbps
Аудио # eng: 48 kHz, AC3, 3/2 (L,C,R,l,r) + LFE ch, ~384.00 kbps
Субтитры: Английские
Реклама:
Отсутствует

Подготовка релиза

Релиз: Grandfather61
особая благодарность shaimovserzh за предоставленную звуковую дорожку LostFilm
Дорожка 1 получена наложением выделенных голосов от «LostFilm» на центр оригинального AC3 - shaimovserzh

Список серий

01. Снег сошел (Snow Gives Way)
02. Темный ястреб взлетает (Shadow Hawk Takes Flight)
03. Громовой пушечный удар (Rolling Thunder Cannon Punch)
04. Восьмая форма ладони дракона (Eight Diagram Dragon Palm)
05. Под листом сорви лотос (Under Leaf Pluck Lotus)
06. Бессмертный выходит из пещеры (Immortal Emerges from Cave)
07. Валить дерево с корнями (Felling Tree with Roots)
08. Благословение множества переломов (The Blessing of Many Fractures)
09. Госпожа всех агоний (The Mistress of All Agonies)
10. Черный тигр крадет сердце (Black Tiger Steals Heart)
11. Веди коня обратно в стойло (Lead Horse Back to Stable)
12. Захват большого босса (Bar the Big Boss)
13. Дракон играет с огнем (Dragon Plays with Fire)

MediaInfo

General
Unique ID : 227018500304394418175862410681782507636 (0xAACA2C3A6EC2ACAB85C9554D5AC21874)
Complete name : G:\Films\Iron.Fist.S01E01.720p.WEBRip.LostFilm\Marvels.Iron.Fist.S01E01.720p.WEBRip.LostFilm.DD5.1.mkv
Format : Matroska
Format version : Version 4 / Version 2
File size : 3.03 GiB
Duration : 56mn 11s
Overall bit rate : 7 716 Kbps
Encoded date : UTC 2017-03-25 09:39:53
Writing application : mkvmerge v9.9.0 ('Pick Up') 64bit
Writing library : libebml v1.3.4 + libmatroska v1.4.5
Video
ID : 1
Format : AVC
Format/Info : Advanced Video Codec
Format profile : H[email protected]
Format settings, CABAC : Yes
Format settings, ReFrames : 9 frames
Codec ID : V_MPEG4/ISO/AVC
Duration : 56mn 10s
Bit rate : 6 946 Kbps
Width : 1 280 pixels
Height : 720 pixels
Display aspect ratio : 16:9
Frame rate mode : Constant
Frame rate : 23.976 (24000/1001) fps
Color space : YUV
Chroma subsampling : 4:2:0
Bit depth : 8 bits
Scan type : Progressive
Bits/(Pixel*Frame) : 0.314
Stream size : 2.73 GiB (90%)
Writing library : x264 core 148 r2638 7599210
Encoding settings : cabac=1 / ref=9 / deblock=1:-3:-3 / analyse=0x3:0x133 / me=umh / subme=10 / psy=1 / psy_rd=1.00:0.00 / mixed_ref=1 / me_range=48 / chroma_me=1 / trellis=2 / 8x8dct=1 / cqm=0 / deadzone=21,11 / fast_pskip=0 / chroma_qp_offset=-2 / threads=16 / lookahead_threads=2 / sliced_threads=0 / nr=0 / decimate=0 / interlaced=0 / bluray_compat=0 / constrained_intra=0 / bframes=9 / b_pyramid=0 / b_adapt=2 / b_bias=0 / direct=3 / weightb=1 / open_gop=0 / weightp=2 / keyint=240 / keyint_min=23 / scenecut=40 / intra_refresh=0 / rc=crf / mbtree=0 / crf=19.0 / qcomp=0.60 / qpmin=10 / qpmax=51 / qpstep=4 / ip_ratio=1.40 / pb_ratio=1.30 / aq=3:0.70
Default : Yes
Forced : No
Audio #1
ID : 2
Format : AC-3
Format/Info : Audio Coding 3
Mode extension : CM (complete main)
Format settings, Endianness : Big
Codec ID : A_AC3
Duration : 56mn 11s
Bit rate mode : Constant
Bit rate : 384 Kbps
Channel(s) : 6 channels
Channel positions : Front: L C R, Side: L R, LFE
Sampling rate : 48.0 KHz
Frame rate : 31.250 fps (1536 spf)
Compression mode : Lossy
Stream size : 154 MiB (5%)
Title : LostFilm 5.1
Language : Russian
Default : Yes
Forced : No
Audio #2
ID : 3
Format : AC-3
Format/Info : Audio Coding 3
Mode extension : CM (complete main)
Format settings, Endianness : Big
Codec ID : A_AC3
Duration : 56mn 11s
Bit rate mode : Constant
Bit rate : 384 Kbps
Channel(s) : 6 channels
Channel positions : Front: L C R, Side: L R, LFE
Sampling rate : 48.0 KHz
Frame rate : 31.250 fps (1536 spf)
Compression mode : Lossy
Delay relative to video : 5ms
Stream size : 154 MiB (5%)
Title : eng
Language : English
Default : No
Forced : No
Text
ID : 4
Format : UTF-8
Codec ID : S_TEXT/UTF8
Codec ID/Info : UTF-8 Plain Text
Duration : 52mn 13s
Bit rate : 46 bps
Count of elements : 615
Stream size : 17.7 KiB (0%)
Title : English
Language : English
Default : No
Forced : No

Скриншоты

[freetreker.nl].t63.torrent 
 ЗОЛОТАЯ РАЗДАЧА! СКАЧАННОЕ НЕ ЗАСЧИТЫВАЕТСЯ! 
Торрент: Зарегистрирован [ 2017-08-02 06:24 ] · D64E75CD470212B9473FCCD83CFB15FEF665902E

Скачать .torrent

Скачать

95 KB

Статус: проверено
Скачан: 0 раз
Размер: 37,45 GB
terms.php
Похожие темы:
[Профиль] [ЛС]
Показать сообщения:    
Ответить на тему

Текущее время: 12-Дек 07:26

Часовой пояс: UTC ± 0



Вы не можете начинать темы
Вы не можете отвечать на сообщения
Вы не можете редактировать свои сообщения
Вы не можете удалять свои сообщения
Вы не можете голосовать в опросах
Вы не можете прикреплять файлы к сообщениям
Вы можете скачивать файлы