Заложница / Taken / Сезон: 1 / Серии: 1-10 из 10 (Холли Дэйл, Ромео Тироне, Лекси Александр) [2017, США, боевик, триллер, WEB-DL 1080p] MVO (LostFilm) + Original

Ответить на тему
Статистика раздачи
Размер:  17,55 GB   |    Зарегистрирован:  8 месяцев 18 дней   |    Скачан:  0 раз

Полного источника не было: Никогда

 
     
 
 
 
Автор Сообщение

Grandfather61 ®

Пол: Мужской

Стаж: 9 месяцев 11 дней

Сообщений: 507

Создавать темы 02-Авг-2017 06:32

[Цитировать]

--Заложница / Taken-- Год выпуска: 2017
Страна: США
Жанр: боевик, триллер
Продолжительность: ~ 00:45:00-Перевод: Профессиональный (многоголосый закадровый) LostFilm-Режиссёр: Холли Дэйл, Ромео Тироне, Лекси Александр
В ролях: Клайв Стэнден, Джеймс Хеберт, Симу Лью, Дженнифер Марсала, Романо Орцари, Джанет Рэкуэл, Дженнифер Билз, Моник Кёрнен, Гай Чарльз, Майкл Ирби и др.
Описание: Это история молодого Брайана Миллса, бывшего «зеленого берета», пережившего трагедию, которая полностью изменила его. Справляясь с последствиями травмы, Миллс становится оперативником ЦРУ, и новая работа пробуждает в нем особенные и невероятно опасные таланты.- -Ссылка на предыдущие и альтернативные раздачи-Качество: WEB-DL 1080p
Контейнер: MKV
Видео: H.264, 1908x1068 (16:9), 23,976 fps, ~5100 kbps, 0.104 bit/pixel
Аудио # rus: AC3, 48 kHz, 6 ch, 384 kbps
Аудио # eng: AC3, 48 kHz, 6 ch, 384 kbps
Субтитры: английские
Реклама: Отсутствует

Релиз

Перевод и озвучивание: LostFilm
Работа со звуком: Grandfather61
Дорожка #1 получена наложением выделенных голосов от «LostFilm» на центр оригинального AC3

Список серий

01. Пилот (Pilot)
02. Готовность (Ready)
03. Вне игры (Off Side)
04. Мэтти Г. (Mattie G.)
05. Швейцарские часы (A Clockwork Swiss)
06. Аве Мария (Hail Mary)
07. Соло (Solo)
08. Лиа (Leah)
09. Потеря (Gone)
10. Я сдаюсь (I Surrender)

MediaInfo

General
Unique ID : 208276033301354812473290584862918407444 (0x9CB08142A7B976F293055622C09F7514)
Complete name : G:\Films\Taken.S01.LostFilm\Taken.S01E01.1080p.WEB-DL.LostFilm.DD5.1.mkv
Format : Matroska
Format version : Version 4 / Version 2
File size : 1.77 GiB
Duration : 43mn 16s
Overall bit rate : 5 866 Kbps
Encoded date : UTC 2017-03-03 08:43:20
Writing application : mkvmerge v9.9.0 ('Pick Up') 64bit
Writing library : libebml v1.3.4 + libmatroska v1.4.5
Video
ID : 1
Format : AVC
Format/Info : Advanced Video Codec
Format profile : High@L4
Format settings, CABAC : Yes
Format settings, ReFrames : 4 frames
Codec ID : V_MPEG4/ISO/AVC
Duration : 43mn 16s
Bit rate : 5 096 Kbps
Width : 1 908 pixels
Height : 1 068 pixels
Display aspect ratio : 16:9
Frame rate mode : Constant
Frame rate : 23.976 (24000/1001) fps
Color space : YUV
Chroma subsampling : 4:2:0
Bit depth : 8 bits
Scan type : Progressive
Bits/(Pixel*Frame) : 0.104
Stream size : 1.54 GiB (87%)
Language : English
Default : Yes
Forced : No
Color range : Limited
Color primaries : BT.709
Transfer characteristics : BT.709
Matrix coefficients : BT.709
Audio #1
ID : 2
Format : AC-3
Format/Info : Audio Coding 3
Mode extension : CM (complete main)
Format settings, Endianness : Big
Codec ID : A_AC3
Duration : 43mn 16s
Bit rate mode : Constant
Bit rate : 384 Kbps
Channel(s) : 6 channels
Channel positions : Front: L C R, Side: L R, LFE
Sampling rate : 48.0 KHz
Frame rate : 31.250 fps (1536 spf)
Compression mode : Lossy
Stream size : 119 MiB (7%)
Title : LostFilm 5.1
Language : Russian
Default : Yes
Forced : No
Audio #2
ID : 3
Format : AC-3
Format/Info : Audio Coding 3
Mode extension : CM (complete main)
Format settings, Endianness : Big
Codec ID : A_AC3
Duration : 43mn 16s
Bit rate mode : Constant
Bit rate : 384 Kbps
Channel(s) : 6 channels
Channel positions : Front: L C R, Side: L R, LFE
Sampling rate : 48.0 KHz
Frame rate : 31.250 fps (1536 spf)
Compression mode : Lossy
Stream size : 119 MiB (7%)
Title : eng
Language : English
Default : No
Forced : No
Text
ID : 4
Format : UTF-8
Codec ID : S_TEXT/UTF8
Codec ID/Info : UTF-8 Plain Text
Duration : 42mn 9s
Bit rate : 47 bps
Count of elements : 488
Stream size : 14.6 KiB (0%)
Title : CC
Language : English
Default : No
Forced : No

Скриншоты

[freetreker.nl].t64.torrent 
 ЗОЛОТАЯ РАЗДАЧА! СКАЧАННОЕ НЕ ЗАСЧИТЫВАЕТСЯ! 
Торрент: Зарегистрирован [ 2017-08-02 06:32 ] · 585C8681C609375FCD32AD7BBCB8186DDE6CC038

Скачать .torrent

Скачать

45 KB

Статус: проверено
Скачан: 0 раз
Размер: 17,55 GB
terms.php
Похожие темы:
[Профиль] [ЛС]
Показать сообщения:    
Ответить на тему

Текущее время: 21-Апр 00:10

Часовой пояс: UTC ± 0



Вы не можете начинать темы
Вы не можете отвечать на сообщения
Вы не можете редактировать свои сообщения
Вы не можете удалять свои сообщения
Вы не можете голосовать в опросах
Вы не можете прикреплять файлы к сообщениям
Вы можете скачивать файлы