Блю Маунтин Стэйт / Реальные пацаны / Blue Mountain State / Сезон: 1 / Серии: 1-8 из 13 (Джон Фортенберри, Дж. Кларк Мэтис) [2010, США, Канада, молодёжная комедия, спорт, BDRip 720p] DVO + Original

Ответить на тему
Статистика раздачи
Размер:  14,73 GB   |    Зарегистрирован:  10 месяцев 13 дней   |    Скачан:  0 раз

Полного источника не было: 8 месяцев 28 дней

 
     
 
 
 
Автор Сообщение

Grandfather61 ®

Пол: Мужской

Стаж: 1 год

Сообщений: 558

Создавать темы 02-Авг-2017 06:36

[Цитировать]

--Блю Маунтин Стэйт / Реальные пацаны / Blue Mountain State-- Год выпуска: 2010
Страна: США, Канада
Жанр: молодёжная комедия, спорт
Продолжительность: ~ 00:28:00-Перевод: Любительский (двухголосый закадровый)-Режиссёр: Джон Фортенберри, Дж. Кларк Мэтис
В ролях: Дэрин Брукс, Алан Ричсон, Гэбриэлль Дэннис, Крис Романо, Эд Маринаро, Кваси Сонгуи и др.-Описание: Сериал рассказывает о трех первокурсниках, поступивших в университет, который уделяет большое внимание американскому футболу. Троица должна быстро адаптироваться к новой жизни, совмещая футбол, женщин, занятия и безостановочные гулянки.-Доп. информация:
Перевод: Алексей Ярополов
Роли озвучивали: Денис Строев и Снежанна Строева
Звукорежиссер: Денис Строев
Постер: Ксения Просветова- -Ссылка на предыдущие и альтернативные раздачи-Качество: BDRip 720p (DON)
Контейнер: MKV
Видео: H.264, 1280x720 (16:9), 23.976 fps, ~8100 kbps, 0.370 bit/pixel
Аудио # rus: AC3, 48 kHz, 6 ch, 640 kbps
Аудио # eng: AC3, 48 kHz, 6 ch, 640 kbps
Субтитры: Английские
Реклама:
Отсутствует

Список серий

01. It's Called Hazing, Look It Up (Дедовщина)
02. Promise Ring (Кольцо верности)
03. Pocket Pussy (Карманная киска)
04. Rivalry Weekend (Соперничество)
05. There's Only One Second Best (Запасной запасного)
06. The Drug Olympics (Командообразующая олимпиада)
07. The Legend of the Golden Arm (Легендарная золотая рука)
08. LAX (Война в Кампусе)
09. Midterms (Зачет)
10. Marathon Monday (Пивной Марафонный Понедельник)
11. Ransom (Приданое)
12. Piss Test (Смена Масла)
13. Bowl Game (Предфинальная Битва)

MediaInfo

General
Unique ID : 206206049959709574145809361963317550832 (0x9B21D733BB74CB11A25748E015A55EF0)
Complete name : G:\Films\Blue.Mountain.State.S01.720p.BDRip.DD5.1\Blue.Mountain.State.S01E01.720p.BDRip.DD5.1.mkv
Format : Matroska
Format version : Version 4 / Version 2
File size : 1.89 GiB
Duration : 28mn 36s
Overall bit rate : 9 464 Kbps
Encoded date : UTC 2017-03-22 08:24:38
Writing application : mkvmerge v9.9.0 ('Pick Up') 64bit
Writing library : libebml v1.3.4 + libmatroska v1.4.5
Video
ID : 1
Format : AVC
Format/Info : Advanced Video Codec
Format profile : High@L4.1
Format settings, CABAC : Yes
Format settings, ReFrames : 9 frames
Codec ID : V_MPEG4/ISO/AVC
Duration : 28mn 36s
Bit rate : 8 182 Kbps
Width : 1 280 pixels
Height : 720 pixels
Display aspect ratio : 16:9
Frame rate mode : Constant
Frame rate : 23.976 (24000/1001) fps
Color space : YUV
Chroma subsampling : 4:2:0
Bit depth : 8 bits
Scan type : Progressive
Bits/(Pixel*Frame) : 0.370
Stream size : 1.64 GiB (86%)
Writing library : x264 core 135 r2345 f0c1c53
Encoding settings : cabac=1 / ref=9 / deblock=1:-3:-3 / analyse=0x3:0x133 / me=umh / subme=10 / psy=1 / psy_rd=0.95:0.05 / mixed_ref=1 / me_range=32 / chroma_me=1 / trellis=2 / 8x8dct=1 / cqm=0 / deadzone=6,6 / fast_pskip=0 / chroma_qp_offset=-3 / threads=9 / lookahead_threads=1 / sliced_threads=0 / nr=0 / decimate=0 / interlaced=0 / bluray_compat=0 / constrained_intra=0 / bframes=8 / b_pyramid=2 / b_adapt=2 / b_bias=0 / direct=3 / weightb=1 / open_gop=0 / weightp=2 / keyint=250 / keyint_min=23 / scenecut=40 / intra_refresh=0 / rc_lookahead=40 / rc=crf / mbtree=1 / crf=18.0 / qcomp=0.70 / qpmin=0 / qpmax=69 / qpstep=4 / ip_ratio=1.30 / aq=1:0.80
Language : English
Default : Yes
Forced : No
Color range : Limited
Matrix coefficients : BT.709
Audio #1
ID : 2
Format : AC-3
Format/Info : Audio Coding 3
Mode extension : CM (complete main)
Format settings, Endianness : Big
Codec ID : A_AC3
Duration : 28mn 36s
Bit rate mode : Constant
Bit rate : 640 Kbps
Channel(s) : 6 channels
Channel positions : Front: L C R, Side: L R, LFE
Sampling rate : 48.0 KHz
Frame rate : 31.250 fps (1536 spf)
Compression mode : Lossy
Stream size : 131 MiB (7%)
Title : rus
Language : Russian
Default : Yes
Forced : No
Audio #2
ID : 3
Format : AC-3
Format/Info : Audio Coding 3
Mode extension : CM (complete main)
Format settings, Endianness : Big
Codec ID : A_AC3
Duration : 28mn 36s
Bit rate mode : Constant
Bit rate : 640 Kbps
Channel(s) : 6 channels
Channel positions : Front: L C R, Side: L R, LFE
Sampling rate : 48.0 KHz
Frame rate : 31.250 fps (1536 spf)
Compression mode : Lossy
Stream size : 131 MiB (7%)
Title : eng
Language : English
Default : No
Forced : No
Text
ID : 4
Format : UTF-8
Codec ID : S_TEXT/UTF8
Codec ID/Info : UTF-8 Plain Text
Duration : 27mn 44s
Bit rate : 86 bps
Count of elements : 518
Stream size : 17.5 KiB (0%)
Title : eng
Language : English
Default : No
Forced : No

Скриншоты

Внимание! Раздача ведётся путём добавления новых серий.

Внимание! Раздача ведётся путём добавления новых серий; при каждом добавлении создётся новый торрент. Чтобы начать докачку новой серии, пользователям необходимо сделать следующее:
Остановить скачивание.
Удалить старый торрент у себя из клиента (старые серии удалять не надо).
Скачать новый торрент и запустить его у себя в клиенте вместо старого, при этом указать клиенту путь в старую папку куда и должно происходить скачивание новых серий.
Ваш клиент при этом должен произвести хеширование (проверку) старой папки (если не производит сам - помогите ему сделать это), и будет докачивать только те серии которых у вас ещё нет. Старые серии при этом не удаляются, а продолжают раздаваться!
Eсли вы уже удалили старые серии, то предотвратить повторную закачку старых серий можно, отжав галочку в соответсвующих местах при запуске нового торрента. По возможности, желательно не удалять старые серии как можно дольше чтобы релизёр не столько продолжал раздавать старые серии, а смог сконцентрироваться на новых.
[freetreker.nl].t65.torrent 
 ЗОЛОТАЯ РАЗДАЧА! СКАЧАННОЕ НЕ ЗАСЧИТЫВАЕТСЯ! 
Торрент: Зарегистрирован [ 2017-09-06 05:37 ] · C2016F8BEFE7FF984116A5B7D73302CA4687FD4D

Скачать .torrent

Скачать

38 KB

Статус: проверено
Скачан: 0 раз
Размер: 14,73 GB
terms.php
Похожие темы:


Последний раз редактировалось: Grandfather61 (2017-09-06 05:54), всего редактировалось 2 раз(а)
[Профиль] [ЛС]

Grandfather61 ®

Пол: Мужской

Стаж: 1 год

Сообщений: 558

Создавать темы 05-Сен-2017 17:47 (спустя 1 месяц 3 дня)

[Цитировать]

Раздача обновлена. Добавлена 7-я серия. Приятного просмотра!
[Профиль] [ЛС]

Grandfather61 ®

Пол: Мужской

Стаж: 1 год

Сообщений: 558

Создавать темы 06-Сен-2017 05:37 (спустя 11 часов)

[Цитировать]

Раздача обновлена. Добавлена 8-я серия. Приятного просмотра!
[Профиль] [ЛС]
Показать сообщения:    
Ответить на тему

Текущее время: 19-Июл 19:37

Часовой пояс: UTC ± 0



Вы не можете начинать темы
Вы не можете отвечать на сообщения
Вы не можете редактировать свои сообщения
Вы не можете удалять свои сообщения
Вы не можете голосовать в опросах
Вы не можете прикреплять файлы к сообщениям
Вы можете скачивать файлы