Табу / Taboo / Сезон: 1 / Серии: 1-8 из 8 (Андерс Энгстрем, Кристоффер Нюхольм) [2017, Великобритания, США, Драма, WEB-DL 720p] MVO (OmskBird) + Original

Ответить на тему
Статистика раздачи
Размер:  15,21 GB   |    Зарегистрирован:  1 год 4 месяца   |    Скачан:  0 раз

Полного источника не было: 1 год 2 месяца

 
     
 
 
 
Автор Сообщение

Grandfather61 ®

Пол: Мужской

Стаж: 1 год 5 месяцев

Сообщений: 641

Создавать темы 02-Авг-2017 07:16

[Цитировать]

--Табу / Taboo-- Год выпуска: 2017
Страна: Великобритания, США
Жанр: Драма
Продолжительность: ~ 00:55:00-Перевод:Профессиональный (многоголосый закадровый) OmskBird-Режиссёр: Андерс Энгстрем, Кристоффер Нюхольм
В ролях: Том Харди, Лео Билл, Уна Чаплин, Ричард Диксон, Дэвид Хейман, Майкл Келли, Дэнни Лигаири, Джонатан Прайс, Рой Торн, Скрубиус Пип-Описание: Считающийся погибшим, авантюрист и искатель приключений Джеймс Кезиах Делейни вновь в 1814 году, после 10 лет путешествий в Африке, появляется в Лондоне, стремясь отомстить за смерть своего отца. Делейни возвращается, чтобы обнаружить, что ему было оставлено отцом таинственное наследство и строит свою собственную корабельную империю в начале 1800-х годов, играя в опасную игру между двумя воюющими странами - Англией и Америкой...-Доп. информация:
Релиз-группа:
Роли озвучивали: Павел Ярощик, Алексей Гнеушев, Станислав Черсков, Марина Гассан
Перевод: Никита Коваль
Звукорежиссер: Павел Квентов
Постер: Ксения Просветова
Монтаж и сведение звука: Юрий Гамов- -Ссылка на предыдущие и альтернативные раздачи-Качество: WEB-DL 720p
Контейнер: MKV
Видео: AVC, 960(1280)x718 (16:9), 25.000 кадр/сек, ~4000 kbps, 0.236 бит/пиксели
Аудио # rus: AC-3, 3/2 (L,C,R,l,r) + LFE ch, 48,0 КГц, 384 Кбит/сек
Аудио #eng: AC-3, 3/2 (L,C,R,l,r) + LFE ch, 48,0 КГц, 384 Кбит/сек
Субтитры: отсутствуют
Реклама:
присутствуют аудио вставки рекламы

MediaInfo

General
Unique ID : 198393155981560519420798424941351298273 (0x954121C9E05398D0901924E9EF7E64E1)
Complete name : G:\Films\Taboo.S01.720p.WEB-DL.OmskBird\Taboo.S01E01.720p.WEB-DL.OmskBird.mkv
Format : Matroska
Format version : Version 4 / Version 2
File size : 1.86 GiB
Duration : 55mn 4s
Overall bit rate : 4 829 Kbps
Encoded date : UTC 2017-01-16 04:38:22
Writing application : mkvmerge v9.7.1 ('Pandemonium') 64bit
Writing library : libebml v1.3.4 + libmatroska v1.4.5
Video
ID : 1
Format : AVC
Format/Info : Advanced Video Codec
Format profile : [email protected]
Format settings, CABAC : No
Format settings, ReFrames : 2 frames
Codec ID : V_MPEG4/ISO/AVC
Duration : 55mn 4s
Bit rate : 4 059 Kbps
Width : 960 pixels
Height : 718 pixels
Display aspect ratio : 16:9
Frame rate mode : Constant
Frame rate : 25.000 fps
Color space : YUV
Chroma subsampling : 4:2:0
Bit depth : 8 bits
Scan type : Progressive
Bits/(Pixel*Frame) : 0.236
Stream size : 1.56 GiB (84%)
Language : English
Default : Yes
Forced : No
Color range : Limited
Color primaries : BT.709
Transfer characteristics : BT.709
Matrix coefficients : BT.709
Audio #1
ID : 2
Format : AC-3
Format/Info : Audio Coding 3
Mode extension : CM (complete main)
Format settings, Endianness : Big
Codec ID : A_AC3
Duration : 55mn 4s
Bit rate mode : Constant
Bit rate : 384 Kbps
Channel(s) : 6 channels
Channel positions : Front: L C R, Side: L R, LFE
Sampling rate : 48.0 KHz
Frame rate : 31.250 fps (1536 spf)
Compression mode : Lossy
Stream size : 151 MiB (8%)
Title : OmskBird 5.1
Language : Russian
Default : Yes
Forced : No
Audio #2
ID : 3
Format : AC-3
Format/Info : Audio Coding 3
Mode extension : CM (complete main)
Format settings, Endianness : Big
Codec ID : A_AC3
Duration : 55mn 4s
Bit rate mode : Constant
Bit rate : 384 Kbps
Channel(s) : 6 channels
Channel positions : Front: L C R, Side: L R, LFE
Sampling rate : 48.0 KHz
Frame rate : 31.250 fps (1536 spf)
Compression mode : Lossy
Stream size : 151 MiB (8%)
Title : eng
Language : English
Default : No
Forced : No

Скриншоты

[freetreker.nl].t69.torrent 
 ЗОЛОТАЯ РАЗДАЧА! СКАЧАННОЕ НЕ ЗАСЧИТЫВАЕТСЯ! 
Торрент: Зарегистрирован [ 2017-08-02 07:16 ] · 7A9452E16423C7F57CF2098D1351D78912E2FC24

Скачать .torrent

Скачать

39 KB

Статус: проверено
Скачан: 0 раз
Размер: 15,21 GB
terms.php
Похожие темы:
[Профиль] [ЛС]
Показать сообщения:    
Ответить на тему

Текущее время: 19-Дек 03:01

Часовой пояс: UTC ± 0



Вы не можете начинать темы
Вы не можете отвечать на сообщения
Вы не можете редактировать свои сообщения
Вы не можете удалять свои сообщения
Вы не можете голосовать в опросах
Вы не можете прикреплять файлы к сообщениям
Вы можете скачивать файлы