Умираю со смеху / I'm Dying Up Here / Сезон: 1 / Серии: 1-10 из 10 (Адам Дэвидсон, Иэн Б. МакДональд) [2017, США, Драма, комедия, WEBRip] MVO (OmskBird)

Ответить на тему
Статистика раздачи
Размер:  9,91 GB   |    Зарегистрирован:  8 месяцев 4 дня   |    Скачан:  0 раз

Полного источника не было: 6 месяцев 8 дней

 
     
 
 
 
Автор Сообщение

Grandfather61 ®

Пол: Мужской

Стаж: 9 месяцев 11 дней

Сообщений: 507

Создавать темы 04-Авг-2017 09:27

[Цитировать]

-- Умираю со смеху / I'm Dying Up Here -- Год выпуска: 2017
Страна: США
Жанр: Драма, комедия
Продолжительность: ~ 01:00:00-Перевод: Профессиональный (многоголосый закадровый) OmskBird-Режиссёр: Адам Дэвидсон, Иэн Б. МакДональд
В ролях: Мелисса Лео, Майкл Ангарано, Аль Адригал, Эри Грейнор, Кларк Дьюк, АрДжей Сайлер, Эндрю Сантино, Эрик Гриффин, Стефен Джуарино, Джон Дэйли и др.-Описание: История завсегдатаев комедийного клуба в Лос-Анджелесе 1970-х.-Доп. информация:
Релиз-группа:
Перевод: Олег Осокин
Роли озвучивали: Алена Соколова, Павел Ярощик, Станислав Черсков
Звукорежиссер: Павел Квентов
Постер: Ксения Просветова- -Ссылка на предыдущие и альтернативные раздачи: http://freetreker.nl/tracker.php?max=1&to=1&...+m+Dying+Up+Here-Качество: WEBRip
Контейнер: AVI
Видео: XviD, 720x400 (1.80:1), 23.976 fps, ~2147 kbps avg, 0.31 bit/pixel
Аудио # rus: AC3, 48 kHz, 2 ch, 192 Kbps | OmskBird
Субтитры: отсутствуют
Реклама: присутствуют вставки рекламы

Список серий

01. Pilot
02. Midnight Special
03. The Cost of a Free Buffet
04. Sugar and Spice
05. Умираю со смеху
06. Girls Are Funny, Too
07. My Rifle, My Pony and Me
08. The Unbelievable Power of Believing
09. Lingchi
10. Creative Indifferences

MediaInfo

General
Complete name : G:FilmsIm.Dying.Up.Here.S01.400p.WEBRip.OmskBirdIm.Dying.Up.Here.S01E01.WEBRip.OmskBird.avi
Format : AVI
Format/Info : Audio Video Interleave
File size : 1 002 MiB
Duration : 59mn 37s
Overall bit rate : 2 349 Kbps
Writing application : VirtualDubMod 1.5.10.3 (build 2550/release)
Writing library : VirtualDubMod build 2550/release
Video
ID : 0
Format : MPEG-4 Visual
Format profile : Advanced Simple@L5
Format settings, BVOP : 1
Format settings, QPel : No
Format settings, GMC : No warppoints
Format settings, Matrix : Default (MPEG)
Codec ID : XVID
Codec ID/Hint : XviD
Duration : 59mn 37s
Bit rate : 2 147 Kbps
Width : 720 pixels
Height : 400 pixels
Display aspect ratio : 16:9
Frame rate : 23.976 (23976/1000) fps
Color space : YUV
Chroma subsampling : 4:2:0
Bit depth : 8 bits
Scan type : Progressive
Compression mode : Lossy
Bits/(Pixel*Frame) : 0.311
Stream size : 916 MiB (91%)
Writing library : XviD 73
Audio
ID : 1
Format : AC-3
Format/Info : Audio Coding 3
Mode extension : CM (complete main)
Format settings, Endianness : Big
Codec ID : 2000
Duration : 59mn 37s
Bit rate mode : Constant
Bit rate : 192 Kbps
Channel(s) : 2 channels
Channel positions : Front: L R
Sampling rate : 48.0 KHz
Frame rate : 31.250 fps (1536 spf)
Compression mode : Lossy
Stream size : 81.9 MiB (8%)
Alignment : Split accross interleaves
Interleave, duration : 42 ms (1.00 video frame)
Interleave, preload duration : 500 ms

Скриншоты

Внимание! Раздача ведётся путём добавления новых серий.

Внимание! Раздача ведётся путём добавления новых серий; при каждом добавлении создётся новый торрент. Чтобы начать докачку новой серии, пользователям необходимо сделать следующее:
Остановить скачивание.
Удалить старый торрент у себя из клиента (старые серии удалять не надо).
Скачать новый торрент и запустить его у себя в клиенте вместо старого, при этом указать клиенту путь в старую папку куда и должно происходить скачивание новых серий.
Ваш клиент при этом должен произвести хеширование (проверку) старой папки (если не производит сам - помогите ему сделать это), и будет докачивать только те серии которых у вас ещё нет. Старые серии при этом не удаляются, а продолжают раздаваться!
Eсли вы уже удалили старые серии, то предотвратить повторную закачку старых серий можно, отжав галочку в соответсвующих местах при запуске нового торрента. По возможности, желательно не удалять старые серии как можно дольше чтобы релизёр не столько продолжал раздавать старые серии, а смог сконцентрироваться на новых.
Раздача обновлена. Добавлена 10-я серия. Приятного просмотра!
[freetreker.nl].t76.torrent 
 ЗОЛОТАЯ РАЗДАЧА! СКАЧАННОЕ НЕ ЗАСЧИТЫВАЕТСЯ! 
Торрент: Зарегистрирован [ 2017-08-16 05:03 ] · B5B2B1AB54F7E74A3F7C81C97C02C55AD9F2A5F5

Скачать .torrent

Скачать

26 KB

Статус: проверено
Скачан: 0 раз
Размер: 9,91 GB
terms.php
Похожие темы:


Последний раз редактировалось: Grandfather61 (2017-08-16 05:03), всего редактировалось 1 раз
[Профиль] [ЛС]

Grandfather61 ®

Пол: Мужской

Стаж: 9 месяцев 11 дней

Сообщений: 507

Создавать темы 08-Авг-2017 17:52 (спустя 4 дня)

[Цитировать]

Раздача обновлена. Добавлена 9-я серия. Приятного просмотра!
[Профиль] [ЛС]

Grandfather61 ®

Пол: Мужской

Стаж: 9 месяцев 11 дней

Сообщений: 507

Создавать темы 16-Авг-2017 05:03 (спустя 7 дней)

[Цитировать]

Раздача обновлена. Добавлена 10-я серия. Приятного просмотра!
[Профиль] [ЛС]
Показать сообщения:    
Ответить на тему

Текущее время: 20-Апр 23:58

Часовой пояс: UTC ± 0



Вы не можете начинать темы
Вы не можете отвечать на сообщения
Вы не можете редактировать свои сообщения
Вы не можете удалять свои сообщения
Вы не можете голосовать в опросах
Вы не можете прикреплять файлы к сообщениям
Вы можете скачивать файлы