Выстрел в пустоту / Shot Caller (2017) BDRip 1080p [MVO] Paradox&Omskbird records

Ответить на тему
Статистика раздачи
Размер:  8,19 GB   |    Зарегистрирован:  11 месяцев 15 дней   |    Скачан:  0 раз

Полного источника не было: 2 месяца 19 дней

 
     
 
 
 
Автор Сообщение

Grandfather61 ®

Пол: Мужской

Стаж: 1 год

Сообщений: 558

Создавать темы 04-Авг-2017 10:40

[Цитировать]

-- Выстрел в пустоту / Shot Caller --- Производство: США, Bold Films, DirecTV, Participant Media, Relativity Media
Жанр: Триллер, Драма, Криминал
Продолжительность: 02:00:41
Перевод: Многоголосый закадровый, профессиональный - Paradox&Omskbird records-Режиссер: Рик Роман Во
Продюсер: Джонатан Кинг, Мишель Литвак, Гари Майкл Уолтерс, ...
Актеры: Николай Костер-Валдау, Джон Бернтал, Лэйк Белл, Омари Хардвик, Джеффри Донован, Эмори Коэн, Бенджамин Брэтт, Джесси Шрэм, Майкл Лэндис, Холт МакКэллани и др.-Описание:
Роковая случайность, смертельная трагедия, и вся его жизнь летит под откос… Оказавшись за решеткой, он должен научиться жить по новым законам. Ты должен стать борцом, авторитетом или окажешься жертвой. Какую цену придется заплатить, чтобы выжить в этом аду, из которого нет дороги назад?..- -Ссылка на предыдущие и альтернативные раздачи-Возраст: 18+ (зрителям, достигшим 18 лет. запрещено для детей)
Дата мировой премьеры: 17 июня 2017
Дата российской премьеры: 13 июля 2017-Качество видео: BDRip 1080p
Видео: AVC/H.264, 1920x800, ~8 435 kbps
Аудио # 1: AC3, 6 ch, 640 Kbps - русский, многоголосый закадровый
Аудио # 2: AC3, 6 ch, 640 Kbps - английский
Субтитры: английские
Реклама: присутствуют аудио вставки рекламы

Подготовка релиза

Релиз-группа: Paradox&Omskbird records
Перевод: Александра Цернант
Роли озвучивали: Алексей Гнеушев, Илья Сланевский, Павел Ярощик, Максим Максимов, Марина Гассан
Звукорежиссер: Павел Квентов
Постер: Ксения Просветова

Mediainfo

General
Unique ID : 207446196604684516185660327995466179733 (0x9C10AF2702FABF78A412BACB72C5E495)
Complete name : E:\Shot.Caller.2017.BDRip.1080p.Paradox&Omskbird\Shot.Caller.2017.BDRip.1080p.Paradox&Omskbird.mkv
Format : Matroska
Format version : Version 4 / Version 2
File size : 8.19 GiB
Duration : 2h 0mn
Overall bit rate : 9 713 Kbps
Encoded date : UTC 2017-08-03 08:43:29
Writing application : mkvmerge v14.0.0 ('Flow') 64bit
Writing library : libebml v1.3.4 + libmatroska v1.4.5
Video
ID : 1
Format : AVC
Format/Info : Advanced Video Codec
Format profile : High@L4.1
Format settings, CABAC : Yes
Format settings, ReFrames : 5 frames
Codec ID : V_MPEG4/ISO/AVC
Duration : 2h 0mn
Bit rate : 8 435 Kbps
Width : 1 920 pixels
Height : 800 pixels
Display aspect ratio : 2.40:1
Frame rate mode : Constant
Frame rate : 23.976 (24000/1001) fps
Color space : YUV
Chroma subsampling : 4:2:0
Bit depth : 8 bits
Scan type : Progressive
Bits/(Pixel*Frame) : 0.229
Stream size : 7.11 GiB (87%)
Writing library : x264 core 152 r2851 ba24899
Encoding settings : cabac=1 / ref=5 / deblock=1:-3:-3 / analyse=0x3:0x113 / me=umh / subme=8 / psy=1 / psy_rd=1.00:0.00 / mixed_ref=1 / me_range=32 / chroma_me=1 / trellis=1 / 8x8dct=1 / cqm=0 / deadzone=21,11 / fast_pskip=1 / chroma_qp_offset=-2 / threads=24 / lookahead_threads=4 / sliced_threads=0 / nr=0 / decimate=1 / interlaced=0 / bluray_compat=0 / constrained_intra=0 / bframes=3 / b_pyramid=2 / b_adapt=2 / b_bias=0 / direct=3 / weightb=1 / open_gop=0 / weightp=2 / keyint=240 / keyint_min=24 / scenecut=40 / intra_refresh=0 / rc_lookahead=50 / rc=2pass / mbtree=1 / bitrate=8435 / ratetol=1.0 / qcomp=0.60 / qpmin=0 / qpmax=69 / qpstep=4 / cplxblur=20.0 / qblur=0.5 / ip_ratio=1.40 / aq=3:0.80
Language : English
Default : Yes
Forced : No
Audio #1
ID : 2
Format : AC-3
Format/Info : Audio Coding 3
Mode extension : CM (complete main)
Format settings, Endianness : Big
Codec ID : A_AC3
Duration : 2h 0mn
Bit rate mode : Constant
Bit rate : 640 Kbps
Channel(s) : 6 channels
Channel positions : Front: L C R, Side: L R, LFE
Sampling rate : 48.0 KHz
Frame rate : 31.250 fps (1536 spf)
Compression mode : Lossy
Stream size : 552 MiB (7%)
Title : Paradox&Omskbird 5.1
Language : Russian
Default : Yes
Forced : No
Audio #2
ID : 3
Format : AC-3
Format/Info : Audio Coding 3
Mode extension : CM (complete main)
Format settings, Endianness : Big
Codec ID : A_AC3
Duration : 2h 0mn
Bit rate mode : Constant
Bit rate : 640 Kbps
Channel(s) : 6 channels
Channel positions : Front: L C R, Side: L R, LFE
Sampling rate : 48.0 KHz
Frame rate : 31.250 fps (1536 spf)
Compression mode : Lossy
Stream size : 552 MiB (7%)
Title : eng
Language : English
Default : No
Forced : No
Text #1
ID : 4
Format : UTF-8
Codec ID : S_TEXT/UTF8
Codec ID/Info : UTF-8 Plain Text
Duration : 1h 52mn
Bit rate : 46 bps
Count of elements : 1251
Stream size : 38.1 KiB (0%)
Title : eng
Language : English
Default : No
Forced : No
Text #2
ID : 5
Format : UTF-8
Codec ID : S_TEXT/UTF8
Codec ID/Info : UTF-8 Plain Text
Duration : 1h 53mn
Bit rate : 47 bps
Count of elements : 1328
Stream size : 39.8 KiB (0%)
Title : SDH
Language : English
Default : No
Forced : No
Menu
00:00:00.000 : en:00:00:00.000
00:22:10.621 : en:00:22:10.621
00:35:14.571 : en:00:35:14.571
00:53:05.224 : en:00:53:05.224
01:06:42.040 : en:01:06:42.040
01:22:27.359 : en:01:22:27.359
01:40:29.482 : en:01:40:29.482
01:54:37.996 : en:01:54:37.996

Скриншоты

[freetreker.nl].t77.torrent 
 ЗОЛОТАЯ РАЗДАЧА! СКАЧАННОЕ НЕ ЗАСЧИТЫВАЕТСЯ! 
Торрент: Зарегистрирован [ 2017-08-04 10:40 ] · 86367863E99ED6A91574FF717C9A584F00A721B5

Скачать .torrent

Скачать

21 KB

Статус: проверено
Скачан: 0 раз
Размер: 8,19 GB
terms.php
Похожие темы:
[Профиль] [ЛС]
Показать сообщения:    
Ответить на тему

Текущее время: 20-Июл 03:08

Часовой пояс: UTC ± 0



Вы не можете начинать темы
Вы не можете отвечать на сообщения
Вы не можете редактировать свои сообщения
Вы не можете удалять свои сообщения
Вы не можете голосовать в опросах
Вы не можете прикреплять файлы к сообщениям
Вы можете скачивать файлы