Грешница / The Sinner / Сезон: 1 / Серии: 1-8 из 8 (Антонио Кампос, Брэд Андерсон) [2017, США, триллер, WEBRip 720p] MVO (LostFilm)

Ответить на тему
Статистика раздачи
Размер:  13,38 GB   |    Зарегистрирован:  11 месяцев 26 дней   |    Скачан:  0 раз

Полного источника не было: 10 месяцев 28 дней

 
     
 
 
 
Автор Сообщение

Grandfather61 ®

Пол: Мужской

Стаж: 1 год 2 месяца

Сообщений: 582

Создавать темы 08-Авг-2017 15:06

[Цитировать]

- Грешница / The Sinner -- Год выпуска: 2017
Страна: США
Жанр: Фантастика, триллер, драма
Продолжительность: ~00:46:00
Перевод: Профессиональный (многоголосый закадровый) LostFilm-Режиссёр: Антонио Кампос, Брэд Андерсон
В ролях: Джессика Бил, Джейкоб Бергер, Спенсер Гранезе, Эдриэнн Ловетт, Кристофер Эбботт, Патти Д Арбанвиль, Элейн дель Валье, Роберт Фунаро и др.-Описание: История о молодой матери, совершающей ужасные акты насилия, понятия не имея, почему, и детективе, который становится одержим делом, стремится углубиться в прошлое женщины и выяснить причины такого поведения.-Доп. информация:
-Ссылка на предыдущие и альтернативные раздачи-Качество: WEBRip 720p
Формат: MKV
Видео: AVC/H.264, 1280x720 (16:9), ~5730 kbps, 23.976 fps, 0.259 bit/pixel
Аудио # Rus: AC3, 48 kHz, 6 ch, 640 kbps
Аудио # Eng: AC3, 48 kHz, 6 ch, 640 kbps
Субтитры: английские
Реклама: отсутствует

Релиз подготовил

Релиз: Grandfather61
Работа со звуком: Grandfather61
Дорожка #1 получена наложением выделенных голосов от «LostFilm» на центр оригинального AC3

MediaInfo

General
Unique ID                                : 225441188473170503205618826247554681002 (0xA99A64C0356FBD1BACC9A07D90A348AA)
Complete name                            : G:\Films\The.Sinner.S01.LostFilm\The.Sinner.S01E01.720p.WEBRip.LostFilm.DD5.1.mkv
Format                                   : Matroska
Format version                           : Version 4 / Version 2
File size                                : 2.28 GiB
Duration                                 : 46mn 27s
Overall bit rate                         : 7 012 Kbps
Encoded date                             : UTC 2017-08-08 12:51:34
Writing application                      : mkvmerge v14.0.0 ('Flow') 64bit
Writing library                          : libebml v1.3.4 + libmatroska v1.4.5
Video
ID                                       : 1
Format                                   : AVC
Format/Info                              : Advanced Video Codec
Format profile                           : High@L4.1
Format settings, CABAC                   : Yes
Format settings, ReFrames                : 9 frames
Codec ID                                 : V_MPEG4/ISO/AVC
Duration                                 : 46mn 27s
Bit rate                                 : 5 730 Kbps
Width                                    : 1 280 pixels
Height                                   : 720 pixels
Display aspect ratio                     : 16:9
Frame rate mode                          : Constant
Frame rate                               : 23.976 (24000/1001) fps
Color space                              : YUV
Chroma subsampling                       : 4:2:0
Bit depth                                : 8 bits
Scan type                                : Progressive
Bits/(Pixel*Frame)                       : 0.259
Stream size                              : 1.86 GiB (82%)
Writing library                          : x264 core 148 r2638 7599210
Encoding settings                        : cabac=1 / ref=9 / deblock=1:-3:-3 / analyse=0x3:0x133 / me=umh / subme=10 / psy=1 / psy_rd=1.00:0.00 / mixed_ref=1 / me_range=48 / chroma_me=1 / trellis=2 / 8x8dct=1 / cqm=0 / deadzone=21,11 / fast_pskip=0 / chroma_qp_offset=-2 / threads=12 / lookahead_threads=2 / sliced_threads=0 / nr=0 / decimate=0 / interlaced=0 / bluray_compat=0 / constrained_intra=0 / bframes=9 / b_pyramid=0 / b_adapt=2 / b_bias=0 / direct=3 / weightb=1 / open_gop=0 / weightp=2 / keyint=240 / keyint_min=23 / scenecut=40 / intra_refresh=0 / rc=crf / mbtree=0 / crf=17.0 / qcomp=0.60 / qpmin=10 / qpmax=51 / qpstep=4 / ip_ratio=1.40 / pb_ratio=1.30 / aq=3:0.70
Language                                 : English
Default                                  : Yes
Forced                                   : No
Audio #1
ID                                       : 2
Format                                   : AC-3
Format/Info                              : Audio Coding 3
Mode extension                           : CM (complete main)
Format settings, Endianness              : Big
Codec ID                                 : A_AC3
Duration                                 : 46mn 27s
Bit rate mode                            : Constant
Bit rate                                 : 640 Kbps
Channel(s)                               : 6 channels
Channel positions                        : Front: L C R, Side: L R, LFE
Sampling rate                            : 48.0 KHz
Frame rate                               : 31.250 fps (1536 spf)
Compression mode                         : Lossy
Stream size                              : 213 MiB (9%)
Title                                    : LostFilm 5.1
Language                                 : Russian
Default                                  : Yes
Forced                                   : No
Audio #2
ID                                       : 3
Format                                   : AC-3
Format/Info                              : Audio Coding 3
Mode extension                           : CM (complete main)
Format settings, Endianness              : Big
Codec ID                                 : A_AC3
Duration                                 : 46mn 27s
Bit rate mode                            : Constant
Bit rate                                 : 640 Kbps
Channel(s)                               : 6 channels
Channel positions                        : Front: L C R, Side: L R, LFE
Sampling rate                            : 48.0 KHz
Frame rate                               : 31.250 fps (1536 spf)
Compression mode                         : Lossy
Stream size                              : 213 MiB (9%)
Title                                    : eng
Language                                 : English
Default                                  : No
Forced                                   : No
Text
ID                                       : 4
Format                                   : UTF-8
Codec ID                                 : S_TEXT/UTF8
Codec ID/Info                            : UTF-8 Plain Text
Duration                                 : 46mn 4s
Bit rate                                 : 59 bps
Count of elements                        : 793
Stream size                              : 20.0 KiB (0%)
Title                                    : eng
Language                                 : English
Default                                  : No
Forced                                   : No

Скриншоты

Внимание! Раздача ведётся путём добавления новых серий

Внимание! Раздача ведётся путём добавления новых серий; при каждом добавлении создаётся новый торрент. Чтобы начать докачку новой серии, пользователям необходимо сделать следующее:
(1) остановить скачивание,
(2) удалить старый торрент у себя из клиента (старые серии удалять не надо),
(3) скачать новый торрент и запустить его у себя в клиенте вместо старого, при этом указать клиенту путь в старую папку куда и должно происходить скачивание новых серий.
Ваш клиент при этом должен произвести хеширование (проверку) старой папки (если не производит сам - помогите ему сделать это), и будет докачивать только те серии которых у вас ещё нет. Старые серии при этом не удаляются, а продолжают раздаваться!
Eсли вы уже удалили старые серии, то предотвратить повторную закачку старых серий можно, отжав галочку в соответствующих местах при запуске нового торрента. По возможности, желательно не удалять старые серии как можно дольше чтобы релизёр не столько продолжал раздавать старые серии, а смог сконцентрироваться на новых.
[freetreker.nl].t81.torrent 
 ЗОЛОТАЯ РАЗДАЧА! СКАЧАННОЕ НЕ ЗАСЧИТЫВАЕТСЯ! 
Торрент: Зарегистрирован [ 2017-09-23 12:52 ] · 625DD3147F36D1316045E825F15ABBDD72514919

Скачать .torrent

Скачать

34 KB

Статус: проверено
Скачан: 0 раз
Размер: 13,38 GB
terms.php
Похожие темы:


Последний раз редактировалось: Grandfather61 (2017-09-23 12:52), всего редактировалось 8 раз(а)
[Профиль] [ЛС]

Grandfather61 ®

Пол: Мужской

Стаж: 1 год 2 месяца

Сообщений: 582

Создавать темы 13-Авг-2017 09:40 (спустя 4 дня)

[Цитировать]

Раздача обновлена. Добавлена 2-я серия. Приятного просмотра!
[Профиль] [ЛС]

Grandfather61 ®

Пол: Мужской

Стаж: 1 год 2 месяца

Сообщений: 582

Создавать темы 20-Авг-2017 08:40 (спустя 6 дней)

[Цитировать]

Раздача обновлена. Замена звуковых дорожек в 1 и 2 сериях (пропер от LostFilm). Добавлена 3-я серия. Приятного просмотра!


Последний раз редактировалось: Grandfather61 (2017-08-20 08:43), всего редактировалось 1 раз
[Профиль] [ЛС]

Создавать темы 20-Авг-2017 08:41 (спустя 1 минута)

Топик был перенесен из форума Сериалы в HD1080p в форум Сериалы в HD720p
Grandfather61
 

Grandfather61 ®

Пол: Мужской

Стаж: 1 год 2 месяца

Сообщений: 582

Создавать темы 26-Авг-2017 11:49 (спустя 6 дней)

[Цитировать]

Раздача обновлена. Добавлена 4-я серия. Приятного просмотра!
[Профиль] [ЛС]

Grandfather61 ®

Пол: Мужской

Стаж: 1 год 2 месяца

Сообщений: 582

Создавать темы 03-Сен-2017 08:46 (спустя 7 дней)

[Цитировать]

Раздача обновлена. Добавлена 5-я серия. Приятного просмотра!
[Профиль] [ЛС]

Grandfather61 ®

Пол: Мужской

Стаж: 1 год 2 месяца

Сообщений: 582

Создавать темы 09-Сен-2017 11:47 (спустя 6 дней)

[Цитировать]

Раздача обновлена. Добавлена 6-я серия. Приятного просмотра!
[Профиль] [ЛС]

Grandfather61 ®

Пол: Мужской

Стаж: 1 год 2 месяца

Сообщений: 582

Создавать темы 16-Сен-2017 06:00 (спустя 6 дней)

[Цитировать]

Раздача обновлена. Добавлена 7-я серия. Приятного просмотра!
[Профиль] [ЛС]

Grandfather61 ®

Пол: Мужской

Стаж: 1 год 2 месяца

Сообщений: 582

Создавать темы 23-Сен-2017 12:53 (спустя 7 дней)

[Цитировать]

Раздача обновлена. Добавлена 8-я серия. Приятного просмотра!
[Профиль] [ЛС]
Показать сообщения:    
Ответить на тему

Текущее время: 19-Сен 15:01

Часовой пояс: UTC ± 0



Вы не можете начинать темы
Вы не можете отвечать на сообщения
Вы не можете редактировать свои сообщения
Вы не можете удалять свои сообщения
Вы не можете голосовать в опросах
Вы не можете прикреплять файлы к сообщениям
Вы можете скачивать файлы