Достать коротышку / Get Shorty / Сезон 1 / Серии 1-10 (10) (Адам Аркин) [2017, США, комедия, криминал, WEB-DLRip] MVO (OMSKBIRD)

Ответить на тему
Статистика раздачи
Размер:  7,72 GB   |    Зарегистрирован:  1 год 2 месяца   |    Скачан:  1 раз

Полного источника не было: 11 месяцев 26 дней

 
     
 
 
 
Автор Сообщение

Gater ®

Пол: Не указан

Стаж: 1 год 5 месяцев

Сообщений: 1558

Создавать темы 11-Авг-2017 14:20

[Цитировать]

-Достать коротышку / Get Shorty- Год выпуска • 2017
Страна • США
Жанр • Комедия, криминал
Продолжительность • ~60 мин.
Перевод
• Профессиональный (многоголосый, закадровый) "OMSKBIRD records"
-Режиссёр • Адам Аркин, Дэниэл Эттиэс, Эдвард Бьянчи
В ролях • Крис О’Дауд, Рэй Романо, Джиллиан Вигмэн, Кристин Элиз, Люси Уолтерс, Кристоффер Полаха, Шон Бриджерс, Лора Каннингэм, Меган Стивенсон и др.-Описание • Майлз Дейли является наемником самой опасной криминальной группировки в Неваде. Ради своей дочери он решает сменить профессию и стать кинопродюсером. С этой целью Майлз отправляется в Голливуд снимать кино, благодаря которому он надеется отмыть преступные деньги. В Лос-Анджелесе он знакомится с неудачливым продюсером третьесортных фильмов, который становится его партнером. Однако бывшие коллеги Майлза не хотят его отпускать и вскоре вслед за ним приезжают в Лос-Анджелес.
Сериал «Достать коротышку» снят по мотивам одноименного романа Элмора Леонарда и является ремейком фильма 1995 года.-Реклама: Присутствует.-
Качество: WEB-DLRip
Формат: AVI
Видео: Xvid / ~ 1800 kbps / 720х400p / 23.976 fps / 16:9
Аудио:
Русский / Dolby Digital 2.0 / 48 kHz / 192 kbps-

- -

Над переводом работали

ПереводАнгелина Яндемерова
Роли озвучивалиСемен Ващенко, Алексей Гнеушев, Владислав Данилов, Анастасия Флигина
ПостерКсения Просветова

MediaInfo


General
Complete name : F:\Мои Документы\Видео\РАЗДАЧИ\Коротыш\Get Shorty S01 WEB-DLRip (OMSKBIRD)\Get Shorty S01E01 WEB-DLRip (OMSKBIRD).avi
Format : AVI
Format/Info : Audio Video Interleave
File size : 887 MiB
Duration : 1h 4mn
Overall bit rate : 1 938 Kbps
Writing application : VirtualDubMod 1.5.10.3 | www.virtualdub-fr.org || (build 2550/release)
Writing library : VirtualDubMod build 2550/release
Video
ID : 0
Format : MPEG-4 Visual
Format profile : Advanced [email protected]
Format settings, BVOP : 2
Format settings, QPel : No
Format settings, GMC : No warppoints
Format settings, Matrix : Default (H.263)
Codec ID : XVID
Codec ID/Hint : XviD
Duration : 1h 4mn
Bit rate : 1 736 Kbps
Width : 720 pixels
Height : 400 pixels
Display aspect ratio : 16:9
Frame rate : 23.976 fps
Color space : YUV
Chroma subsampling : 4:2:0
Bit depth : 8 bits
Scan type : Progressive
Compression mode : Lossy
Bits/(Pixel*Frame) : 0.251
Stream size : 795 MiB (90%)
Writing library : XviD 1.2.1 (UTC 2008-12-04)
Audio
ID : 1
Format : AC-3
Format/Info : Audio Coding 3
Mode extension : CM (complete main)
Format settings, Endianness : Big
Codec ID : 2000
Duration : 1h 4mn
Bit rate mode : Constant
Bit rate : 192 Kbps
Channel(s) : 2 channels
Channel positions : Front: L R
Sampling rate : 48.0 KHz
Bit depth : 16 bits
Compression mode : Lossy
Stream size : 87.9 MiB (10%)
Alignment : Split accross interleaves
Interleave, duration : 42 ms (1.00 video frame)
Interleave, preload duration : 500 ms
[freetreker.nl].t84.torrent 
 ЗОЛОТАЯ РАЗДАЧА! СКАЧАННОЕ НЕ ЗАСЧИТЫВАЕТСЯ! 
Торрент: Зарегистрирован [ 2017-10-09 19:34 ] · 51DC12DB81E5DE9893850CE8FEB039E1D140BE5F

Скачать .torrent

Скачать

20 KB

Статус: проверено
Скачан: 1 раз
Размер: 7,72 GB
terms.php
Похожие темы:


Последний раз редактировалось: Gater (2017-10-09 19:34), всего редактировалось 8 раз(а)
[Профиль] [ЛС]

Gater ®

Пол: Не указан

Стаж: 1 год 5 месяцев

Сообщений: 1558

Создавать темы 13-Авг-2017 11:05 (спустя 1 день 20 часов)

[Цитировать]

+2
[Профиль] [ЛС]

Gater ®

Пол: Не указан

Стаж: 1 год 5 месяцев

Сообщений: 1558

Создавать темы 18-Авг-2017 14:58 (спустя 5 дней)

[Цитировать]

+3
[Профиль] [ЛС]

Gater ®

Пол: Не указан

Стаж: 1 год 5 месяцев

Сообщений: 1558

Создавать темы 30-Авг-2017 14:38 (спустя 11 дней)

[Цитировать]

+4
[Профиль] [ЛС]

Gater ®

Пол: Не указан

Стаж: 1 год 5 месяцев

Сообщений: 1558

Создавать темы 05-Сен-2017 10:30 (спустя 5 дней)

[Цитировать]

+5
[Профиль] [ЛС]

Gater ®

Пол: Не указан

Стаж: 1 год 5 месяцев

Сообщений: 1558

Создавать темы 11-Сен-2017 21:09 (спустя 6 дней)

[Цитировать]

+6
[Профиль] [ЛС]

Gater ®

Пол: Не указан

Стаж: 1 год 5 месяцев

Сообщений: 1558

Создавать темы 18-Сен-2017 20:26 (спустя 6 дней)

[Цитировать]

+7
[Профиль] [ЛС]

Gater ®

Пол: Не указан

Стаж: 1 год 5 месяцев

Сообщений: 1558

Создавать темы 26-Сен-2017 11:34 (спустя 7 дней)

[Цитировать]

Добавлена 8-ая серия
[Профиль] [ЛС]

Gater ®

Пол: Не указан

Стаж: 1 год 5 месяцев

Сообщений: 1558

Создавать темы 03-Окт-2017 10:57 (спустя 6 дней)

[Цитировать]

+9
[Профиль] [ЛС]

Gater ®

Пол: Не указан

Стаж: 1 год 5 месяцев

Сообщений: 1558

Создавать темы 09-Окт-2017 19:35 (спустя 6 дней)

[Цитировать]

+10
Финал сезона
[Профиль] [ЛС]
Показать сообщения:    
Ответить на тему

Текущее время: 13-Дек 23:31

Часовой пояс: UTC ± 0



Вы не можете начинать темы
Вы не можете отвечать на сообщения
Вы не можете редактировать свои сообщения
Вы не можете удалять свои сообщения
Вы не можете голосовать в опросах
Вы не можете прикреплять файлы к сообщениям
Вы можете скачивать файлы