По Волчьим Законам / Animal Kingdom / Сезон 2 / Серии 1-13 (13) (Кристофер Чулак) [2017, США, драма, криминал, WEB-DL 1080p] MVO (OMSKBIRD)

Ответить на тему
Статистика раздачи
Размер:  26,65 GB   |    Зарегистрирован:  1 год 3 месяца   |    Скачан:  0 раз

Полного источника не было: 1 год 2 месяца

 
     
 
 
 
Автор Сообщение

Gater ®

Пол: Не указан

Стаж: 1 год 5 месяцев

Сообщений: 1555

Создавать темы 23-Авг-2017 19:35

[Цитировать]

-По Волчьим Законам / Animal Kingdom- Год выпуска • 2017
Страна • США
Жанр • криминал, драма
Продолжительность • ~50 мин.
Перевод
• Профессиональный (многоголосый, закадровый) "OMSKBIRD records"
-Создатель • Кристофер Чулак, Реджина Кинг, Джон Уэллс
В ролях • Эллен Баркин, Скотт Спидман, Шон Хэтоси, Бен Робсон, Джейк Вири, Финн Коул, Даниэлла Алонсо, Молли Гордон, Ники Мишо, Кристина Очоа и др.-Описание • На создание сериала создателей вдохновил одноимённый австралийский фильм Дэвида Мишо 2010 года. Это история о том, как 17-летний Джошуа Коди после смерти матери переезжает к своей родне в пляжный городок в Южной Калифорнии. Глава семьи Джанин Коди руководит семейным делом. Главный её помощник — старший из братьев Коди по имени Поуп. Остальные сыновья тоже помогают матери по мере сил. Вскоре Джошуа понимает, что фамильный бизнес связан с криминалом и что теперь он волей-неволей сделался частью этого нового для него смертельно опасного мира.-ПереводНиколай Исаков
Роли озвучивалиПавел Ярощик, Дмитрий Виноградов, Анастасия Флигина
ЗвукорежиссерПавел Квентов
ПостерКсения Просветова
Релиз подготовилGater-Реклама: аудио (два раза, в начале и конце, по 15 сек.)-
Качество: iTunes WEB-DL 1080p
Формат: MKV
Видео: MPEG-4 AVC / ~ 5000 kbps / 1912х1072p / 23.976 fps / 16:9 / ~ 0.104 bit/pixel / High Level 4.0
Аудио:
Русский / Dolby Digital 5.1 / 48 kHz / 384 kbps
English / Dolby Digital 5.1 / 48 kHz / 384 kbps
Субтитры: Eng-

-

Скриншоты

-

MediaInfo


General
Unique ID : 181666622227323022842695019732152346474 (0x88ABB800F06487E5B579B1F8A27BE76A)
Complete name : F:\Мои Документы\Видео\РАЗДАЧИ\Энимал Кингдом\Animal Kingdom S02 WEB-DL 1080p (OMSKBIRD)\Animal Kingdom S02E01 WEB-DL 1080p (OMSKBIRD).mkv
Format : Matroska
Format version : Version 2
File size : 2.08 GiB
Duration : 49mn 58s
Overall bit rate : 5 948 Kbps
Encoded date : UTC 2017-06-01 08:41:44
Writing application : mkvmerge v4.0.0 ('The Stars were mine') сборка от Jun 6 2010 16:18:42
Writing library : libebml v1.0.0 + libmatroska v1.0.0
Video
ID : 1
Format : AVC
Format/Info : Advanced Video Codec
Format profile : [email protected]
Format settings, CABAC : Yes
Format settings, ReFrames : 4 frames
Codec ID : V_MPEG4/ISO/AVC
Duration : 49mn 58s
Bit rate : 5 062 Kbps
Width : 1 912 pixels
Height : 1 072 pixels
Display aspect ratio : 16:9
Frame rate : 23.976 fps
Color space : YUV
Chroma subsampling : 4:2:0
Bit depth : 8 bits
Scan type : Progressive
Bits/(Pixel*Frame) : 0.103
Stream size : 1.77 GiB (85%)
Language : English
Default : No
Forced : No
Color primaries : BT.709-5, BT.1361, IEC 61966-2-4, SMPTE RP177
Transfer characteristics : BT.709-5, BT.1361
Matrix coefficients : BT.709-5, BT.1361, IEC 61966-2-4 709, SMPTE RP177
Audio #1
ID : 2
Format : AC-3
Format/Info : Audio Coding 3
Mode extension : CM (complete main)
Format settings, Endianness : Big
Codec ID : A_AC3
Duration : 49mn 58s
Bit rate mode : Constant
Bit rate : 384 Kbps
Channel(s) : 6 channels
Channel positions : Front: L C R, Side: L R, LFE
Sampling rate : 48.0 KHz
Bit depth : 16 bits
Compression mode : Lossy
Delay relative to video : -42ms
Stream size : 137 MiB (6%)
Language : Russian
Default : Yes
Forced : No
Audio #2
ID : 3
Format : AC-3
Format/Info : Audio Coding 3
Mode extension : CM (complete main)
Format settings, Endianness : Big
Codec ID : A_AC3
Duration : 49mn 58s
Bit rate mode : Constant
Bit rate : 384 Kbps
Channel(s) : 6 channels
Channel positions : Front: L C R, Side: L R, LFE
Sampling rate : 48.0 KHz
Bit depth : 16 bits
Compression mode : Lossy
Delay relative to video : -42ms
Stream size : 137 MiB (6%)
Language : English
Default : No
Forced : No
Text
ID : 4
Format : UTF-8
Codec ID : S_TEXT/UTF8
Codec ID/Info : UTF-8 Plain Text
Language : English
Default : No
Forced : No
[freetreker.nl].t97.torrent 
 ЗОЛОТАЯ РАЗДАЧА! СКАЧАННОЕ НЕ ЗАСЧИТЫВАЕТСЯ! 
Торрент: Зарегистрирован [ 2017-08-31 10:44 ] · 0C4E7F47865E3D4AC5F35507694D5CC347102C69

Скачать .torrent

Скачать

68 KB

Статус: проверено
Скачан: 0 раз
Размер: 26,65 GB
terms.php
Похожие темы:
[Профиль] [ЛС]

Gater ®

Пол: Не указан

Стаж: 1 год 5 месяцев

Сообщений: 1555

Создавать темы 31-Авг-2017 10:48 (спустя 7 дней)

[Цитировать]

+13
[Профиль] [ЛС]
Показать сообщения:    
Ответить на тему

Текущее время: 12-Дек 07:58

Часовой пояс: UTC ± 0



Вы не можете начинать темы
Вы не можете отвечать на сообщения
Вы не можете редактировать свои сообщения
Вы не можете удалять свои сообщения
Вы не можете голосовать в опросах
Вы не можете прикреплять файлы к сообщениям
Вы можете скачивать файлы